Šta je novo?

I'll See You in My Dreams (2015)

Član
Učlanjen(a)
23.12.2014
Poruka
3.611
FEUi_S.jpg

I'll See You in My Dreams (2015) 1080p BluRay DTS x264-HDS

iNFO URL:
Kod:
http://www.imdb.com/title/tt3236120/

STORYLiNE:
A widow and former songstress discovers that life can begin anew at any age.

ViDEO iNFO:
RELEASE.NAME...: I'll See You in My Dreams 2015 1080p BluRay DTS x264-HDS
RELEASE.TIME...: 08/27/2015
IMDB.RATING....: 6.9/10 from 1,092 users
Genre..........: Comedy, Drama
RUN.TIME.......: 1:36:33.621 (h:m:s.ms)
SIZE...........: 10.2 GiB
CONTAINER......: Matroska
VIDEO.CODEC....: x264, High@L4.1
FRAME.RATE.....: 23.976 fps
BIT.RATE.......: 13.4 Mbps
RESOLUTION.....: 1920 x 1036
AUDIO..........: English DTS 5.1 @ 1509 Kbps
CHAPTERS.......: N/A
SUBTITLES......: N/A
RIP.SOURCE.....: I'll See You in My Dreams 2015 BluRay 1080p AVC DTS-HD MA5.1-MTeam (thanks)
RIPPER.........: @HDS

x264 Information:
x264 : frame I:1003 Avg QP:17.58 size:205503
x264 : frame P:25021 Avg QP:17.72 size:111260
x264 : frame B:112883 Avg QP:18.85 size: 61267
x264 : consecutive B-frames: 1.1% 0.4% 2.0% 7.9% 11.3% 67.7% 5.9% 1

9058e61492ff04bf29b8e5ce5f06774c.jpg


Hidden content
You need to react to this post in order to see this content.
I'd really appreciate if you say thanks to keep the post alive
but whether you say thanks or not, you're welcome!
 
Član
Učlanjen(a)
09.05.2011
Poruka
7.549
dream.jpg



I'll See You in My Dreams 2015 1080p BluRay x264 DTS-WiKi
File Size: 10.5 GiB


INFO:
Kod:
General
Complete name                  : I'll.See.You.in.My.Dreams.2015.1080p.BluRay.x264.DTS-WiKi.mkv
Format                         : Matroska
Format version                 : Version 1
File size                      : 10.5 GiB
Duration                       : 1h 36mn
Overall bit rate               : 15.5 Mbps
Encoded date                   : UTC 2015-08-27 00:29:40
Writing application            : mkvmerge v2.2.0 ('Turn It On Again') built on Mar  4 2008 13:20:25
Writing library                : libebml v0.7.7 + libmatroska v0.8.1

Video
ID                             : 1
Format                         : AVC
Format/Info                    : Advanced Video Codec
Format profile                 : High@L4.1
Format settings, CABAC         : Yes
Format settings, ReFrames      : 4 frames
Codec ID                       : V_MPEG4/ISO/AVC
Duration                       : 1h 36mn
Bit rate                       : 14.0 Mbps
Width                          : 1 920 pixels
Height                         : 1 036 pixels
Display aspect ratio           : 1.85:1
Frame rate mode                : Constant
Frame rate                     : 23.976 fps
Color space                    : YUV
Chroma subsampling             : 4:2:0
Bit depth                      : 8 bits
Scan type                      : Progressive
Bits/(Pixel*Frame)             : 0.294
Stream size                    : 9.23 GiB (88%)
Writing library                : x264 core 130 r2273 b3065e6
Language                       : English
Default                        : Yes
Forced                         : No

Audio
ID                             : 2
Format                         : DTS
Format/Info                    : Digital Theater Systems
Mode                           : 16
Format settings, Endianness    : Big
Codec ID                       : A_DTS
Duration                       : 1h 36mn
Bit rate mode                  : Constant
Bit rate                       : 1 509 Kbps
Channel count                  : 6 channels
Channel positions              : Front: L C R, Side: L R, LFE
Sampling rate                  : 48.0 KHz
Bit depth                      : 24 bits
Compression mode               : Lossy
Stream size                    : 1.02 GiB (10%)
Language                       : English
Default                        : Yes
Forced                         : No

iMDB:
Kod:
http://www.imdb.com/title/tt3236120/

dreams.jpg


Single Extraction | No Password | Interchangeable Links | Working 100%
Kod:
http://rapidgator.net/file/5051a266fe1cba4085392e2b17fd1c60/IllsYiMD1080p.WiKi.part01.rar.html
http://rapidgator.net/file/96d620f1624c4cd5d6075c985fb7d9d8/IllsYiMD1080p.WiKi.part02.rar.html
http://rapidgator.net/file/1fe21cc0a09c716e0130de32c5937d2c/IllsYiMD1080p.WiKi.part03.rar.html
http://rapidgator.net/file/31af0c389ed006fbde08a814974be3b0/IllsYiMD1080p.WiKi.part04.rar.html
http://rapidgator.net/file/d330a3fb394b5eb6412ddebc6131b912/IllsYiMD1080p.WiKi.part05.rar.html
http://rapidgator.net/file/5574842158349f6e8d62c5f37ea22aec/IllsYiMD1080p.WiKi.part06.rar.html
http://rapidgator.net/file/8372fc7f228e9780357ae7058f07b856/IllsYiMD1080p.WiKi.part07.rar.html
http://rapidgator.net/file/622f6b973074fca783204891bf453086/IllsYiMD1080p.WiKi.part08.rar.html
http://rapidgator.net/file/1cfcab18b106c9a8a715087aca57e0f6/IllsYiMD1080p.WiKi.part09.rar.html
http://rapidgator.net/file/dbae02e8393a192e4901c05441227abb/IllsYiMD1080p.WiKi.part10.rar.html
http://rapidgator.net/file/0a3bdd6c229a4a4688b9ce52eca2b081/IllsYiMD1080p.WiKi.part11.rar.html

http://uploaded.net/file/k33z4wlz/IllsYiMD1080p.WiKi.part01.rar
http://uploaded.net/file/qjjfva3u/IllsYiMD1080p.WiKi.part02.rar
http://uploaded.net/file/72imw09r/IllsYiMD1080p.WiKi.part03.rar
http://uploaded.net/file/m2ibklib/IllsYiMD1080p.WiKi.part04.rar
http://uploaded.net/file/cu55630c/IllsYiMD1080p.WiKi.part05.rar
http://uploaded.net/file/t8d0kumj/IllsYiMD1080p.WiKi.part06.rar
http://uploaded.net/file/paj5rk54/IllsYiMD1080p.WiKi.part07.rar
http://uploaded.net/file/tor93mjh/IllsYiMD1080p.WiKi.part08.rar
http://uploaded.net/file/r82gd0tx/IllsYiMD1080p.WiKi.part09.rar
http://uploaded.net/file/ufne1c2v/IllsYiMD1080p.WiKi.part10.rar
http://uploaded.net/file/f6uj9jld/IllsYiMD1080p.WiKi.part11.rar

http://k2s.cc/file/72f27990fb141/IllsYiMD1080p.WiKi.part01.rar
http://k2s.cc/file/38f50f1138ecb/IllsYiMD1080p.WiKi.part02.rar
http://k2s.cc/file/5c0fa76c73cdb/IllsYiMD1080p.WiKi.part03.rar
http://k2s.cc/file/b5dcf1b3768a7/IllsYiMD1080p.WiKi.part04.rar
http://k2s.cc/file/b5877b175e1b9/IllsYiMD1080p.WiKi.part05.rar
http://k2s.cc/file/e5f44f70fffc6/IllsYiMD1080p.WiKi.part06.rar
http://k2s.cc/file/bfb154242833a/IllsYiMD1080p.WiKi.part07.rar
http://k2s.cc/file/af9caed7d9aa9/IllsYiMD1080p.WiKi.part08.rar
http://k2s.cc/file/2cb1b81d8f49c/IllsYiMD1080p.WiKi.part09.rar
http://k2s.cc/file/07151f4344659/IllsYiMD1080p.WiKi.part10.rar
http://k2s.cc/file/27386fb8251c7/IllsYiMD1080p.WiKi.part11.rar

http://nitroflare.com/view/E0F5A2D787B8163/IllsYiMD1080p.WiKi.part01.rar
http://nitroflare.com/view/675D369F277B886/IllsYiMD1080p.WiKi.part02.rar
http://nitroflare.com/view/FEA10BA3124FF7C/IllsYiMD1080p.WiKi.part03.rar
http://nitroflare.com/view/A13E4C2E2434FB6/IllsYiMD1080p.WiKi.part04.rar
http://nitroflare.com/view/A192EB3AFA76E82/IllsYiMD1080p.WiKi.part05.rar
http://nitroflare.com/view/12740B67B02179F/IllsYiMD1080p.WiKi.part06.rar
http://nitroflare.com/view/86C4BA932B95473/IllsYiMD1080p.WiKi.part07.rar
http://nitroflare.com/view/2BF8F5CF83166F7/IllsYiMD1080p.WiKi.part08.rar
http://nitroflare.com/view/1E563F3541B56CF/IllsYiMD1080p.WiKi.part09.rar
http://nitroflare.com/view/EE710B4B222CD19/IllsYiMD1080p.WiKi.part10.rar
http://nitroflare.com/view/1A25DB147A399EC/IllsYiMD1080p.WiKi.part11.rar
 
Top