Šta je novo?
Član
Učlanjen(a)
09.05.2011
Poruka
7.549
************************************************************
Ice Soldiers (2013) 1080p BluRay DTS x264 PHD
File Size: 7.94 GiB

************************************************************

icehd.jpg


INFO:

General
Complete name : Ice.Soldiers.2013.1080p.BluRay.DTS.x264-PHD.mkv
Format : Matroska
Format version : Version 4 / Version 2
File size : 7.94 GiB
Duration : 1h 35mn
Overall bit rate : 11.9 Mbps
Encoded date : UTC 2014-02-14 02:49:42
Writing application : mkvmerge v6.7.0 ('Back to the Ground') 64bit built on Jan 8 2014 15:10:52
Writing library : libebml v1.3.0 + libmatroska v1.4.1

Video
ID : 1
Format : AVC
Format/Info : Advanced Video Codec
Format profile : [email protected]
Format settings, CABAC : Yes
Format settings, ReFrames : 5 frames
Codec ID : V_MPEG4/ISO/AVC
Duration : 1h 35mn
Bit rate : 10.2 Mbps
Width : 1 920 pixels
Height : 800 pixels
Display aspect ratio : 2.40:1
Frame rate mode : Constant
Frame rate : 23.976 fps
Color space : YUV
Chroma subsampling : 4:2:0
Bit depth : 8 bits
Scan type : Progressive
Bits/(Pixel*Frame) : 0.276
Stream size : 6.78 GiB (85%)
Language : English
Default : Yes
Forced : No

Audio
ID : 2
Format : DTS
Format/Info : Digital Theater Systems
Mode : 16
Format settings, Endianness : Big
Codec ID : A_DTS
Duration : 1h 35mn
Bit rate mode : Constant
Bit rate : 1 509 Kbps
Channel count : 6 channels
Channel positions : Front: L C R, Side: L R, LFE
Sampling rate : 48.0 KHz
Bit depth : 24 bits
Compression mode : Lossy
Stream size : 1.01 GiB (13%)
Language : English
Default : Yes
Forced : No

PLOT: A scientist discovers the bodies of three frozen genetically modified Russians buried in the Canadian North. Upon thawing them out he realizes he has unleashed a deadly threat to Western society and must stop them at all costs.

iMDB:
Kod:
[url]http://www.imdb.com/title/tt3104304/[/url]


ice1.jpg


ice2.jpg


ice3.jpg



SINGLE EXTRACTION | NO PASSWORD | INTERCHANGEABLE LINK:
Kod:
[url]http://uploaded.net/file/5yj2k92r/1cES0lD13.1080.PHD.part01.rar[/url]
[url]http://uploaded.net/file/2xvleb9o/1cES0lD13.1080.PHD.part02.rar[/url]
[url]http://uploaded.net/file/z6h2tu3g/1cES0lD13.1080.PHD.part03.rar[/url]
[url]http://uploaded.net/file/cy88e8rv/1cES0lD13.1080.PHD.part04.rar[/url]
[url]http://uploaded.net/file/v7x4otg7/1cES0lD13.1080.PHD.part05.rar[/url]
[url]http://uploaded.net/file/2w3qcohz/1cES0lD13.1080.PHD.part06.rar[/url]
[url]http://uploaded.net/file/yp6wa669/1cES0lD13.1080.PHD.part07.rar[/url]
[url]http://uploaded.net/file/gw14znqr/1cES0lD13.1080.PHD.part08.rar[/url]
[url]http://uploaded.net/file/9jra411f/1cES0lD13.1080.PHD.part09.rar[/url]

[url]http://rapidgator.net/file/ca32f4432c724354f95834230fed271c/1cES0lD13.1080.PHD.part01.rar.html[/url]
[url]http://rapidgator.net/file/ad0dae65f89b12edaf76a72e31663c12/1cES0lD13.1080.PHD.part02.rar.html[/url]
[url]http://rapidgator.net/file/eebebbdfe96d059c2d2f8fa1256bdac9/1cES0lD13.1080.PHD.part03.rar.html[/url]
[url]http://rapidgator.net/file/61d37e2e37438bc6e7307c5997f940df/1cES0lD13.1080.PHD.part04.rar.html[/url]
[url]http://rapidgator.net/file/70f83b88087a0fd4558ae58db8aaa7d9/1cES0lD13.1080.PHD.part05.rar.html[/url]
[url]http://rapidgator.net/file/adddb3a03ae30bb44d8939efe7f467af/1cES0lD13.1080.PHD.part06.rar.html[/url]
[url]http://rapidgator.net/file/f30571fc93c4c8f98ecc74621be0f3dc/1cES0lD13.1080.PHD.part07.rar.html[/url]
[url]http://rapidgator.net/file/57c7b7fb1b2ee32d2a6fbd6b8c6c8850/1cES0lD13.1080.PHD.part08.rar.html[/url]
[url]http://rapidgator.net/file/63341be7e5e224b225d56e7d2a4d21fc/1cES0lD13.1080.PHD.part09.rar.html[/url]

[url]http://k2s.cc/file/1c928a576b0b3/1cES0lD13.1080.PHD.part01.rar[/url]
[url]http://k2s.cc/file/b41df8b273e30/1cES0lD13.1080.PHD.part02.rar[/url]
[url]http://k2s.cc/file/360b4462b9f8e/1cES0lD13.1080.PHD.part04.rar[/url]
[url]http://k2s.cc/file/529818ee491ef/1cES0lD13.1080.PHD.part05.rar[/url]
[url]http://k2s.cc/file/5495e4e34fc75/1cES0lD13.1080.PHD.part06.rar[/url]
[url]http://k2s.cc/file/04b5839186b75/1cES0lD13.1080.PHD.part07.rar[/url]
[url]http://k2s.cc/file/d017b416ce926/1cES0lD13.1080.PHD.part08.rar[/url]
[url]http://k2s.cc/file/301e9aaad7210/1cES0lD13.1080.PHD.part09.rar[/url]


I HAVE BACKUP, DONT WORRY ABOUT DEAD LINKS, PLEASE SEND ME PM, AND I WILL REUP ANY LINK
 
Član
Učlanjen(a)
09.05.2011
Poruka
7.549
************************************************************
Ice Soldiers (2013) 720p BluRay x264-G3LHD
File Size: 4.36 GiB

************************************************************

icehd.jpg


INFO:

General
Complete name : IcS0l13.720p.mkv
Format : Matroska
Format version : Version 2
File size : 4.36 GiB
Duration : 1h 35mn
Overall bit rate : 6 549 Kbps
Encoded date : UTC 2014-02-19 14:30:08
Writing application : mkvmerge v6.7.0 ('Back to the Ground') 32bit built on Jan 8 2014 15:03:17
Writing library : libebml v1.3.0 + libmatroska v1.4.1

Video
ID : 1
Format : AVC
Format/Info : Advanced Video Codec
Format profile : [email protected]
Format settings, CABAC : Yes
Format settings, ReFrames : 5 frames
Codec ID : V_MPEG4/ISO/AVC
Duration : 1h 35mn
Bit rate : 5 909 Kbps
Width : 1 280 pixels
Height : 536 pixels
Display aspect ratio : 2.40:1
Frame rate mode : Constant
Frame rate : 23.976 fps
Color space : YUV
Chroma subsampling : 4:2:0
Bit depth : 8 bits
Scan type : Progressive
Bits/(Pixel*Frame) : 0.359
Stream size : 3.85 GiB (88%)
Writing library : x264 core 140 r2377 1ca7bb9
Language : English
Default : Yes
Forced : No

Audio
ID : 2
Format : AC-3
Format/Info : Audio Coding 3
Mode extension : CM (complete main)
Format settings, Endianness : Big
Codec ID : A_AC3
Duration : 1h 35mn
Bit rate mode : Constant
Bit rate : 640 Kbps
Channel count : 6 channels
Channel positions : Front: L C R, Side: L R, LFE
Sampling rate : 48.0 KHz
Bit depth : 16 bits
Compression mode : Lossy
Stream size : 437 MiB (10%)
Language : English
Default : Yes
Forced : No

Plot: A scientist discovers the bodies of three frozen genetically modified Russians buried in the Canadian North. Upon thawing them out he realizes he has unleashed a deadly threat to Western society and must stop them at all costs.

iMDB:
Kod:
[url]http://www.imdb.com/title/tt3104304/[/url]


vlcsnap-2014-02-20-08h35.png


vlcsnap-2014-02-20-08h35.png


vlcsnap-2014-02-20-08h36.png



SINGLE EXTRACTION | NO PASSWORD | INTERCHANGEABLE LINK:
Kod:
[url]http://uploaded.net/file/q5wnp6sr/IcS0l13.720p.part1.rar[/url]
[url]http://uploaded.net/file/flp6a6lw/IcS0l13.720p.part2.rar[/url]
[url]http://uploaded.net/file/46fwtta0/IcS0l13.720p.part3.rar[/url]
[url]http://uploaded.net/file/qccbd64c/IcS0l13.720p.part4.rar[/url]
[url]http://uploaded.net/file/lre6nx6z/IcS0l13.720p.part5.rar[/url]

[url]http://rapidgator.net/file/8510700f291d5d83540bc3f38b906c2e/IcS0l13.720p.part1.rar.html[/url]
[url]http://rapidgator.net/file/98a2e8b966ca48f8c13fe40173b3f628/IcS0l13.720p.part2.rar.html[/url]
[url]http://rapidgator.net/file/7055c2f2227ebe90f28e27d399eee592/IcS0l13.720p.part3.rar.html[/url]
[url]http://rapidgator.net/file/2323aaf2cf8fdd015efba9e92b866c64/IcS0l13.720p.part4.rar.html[/url]
[url]http://rapidgator.net/file/5ce8dca1bc02d7ff308f636f2e4dd4b2/IcS0l13.720p.part5.rar.html[/url]

[url]http://k2s.cc/file/6650a47e2830e/IcS0l13.720p.part1.rar[/url]
[url]http://k2s.cc/file/1b9acb1ec807b/IcS0l13.720p.part2.rar[/url]
[url]http://k2s.cc/file/36ca22c88a930/IcS0l13.720p.part3.rar[/url]
[url]http://k2s.cc/file/71bf7f6106301/IcS0l13.720p.part4.rar[/url]
[url]http://k2s.cc/file/4a1cf87395b79/IcS0l13.720p.part5.rar[/url]

DOWNLOAD SINGL LINKS:
Kod:
[url]http://uploaded.net/file/ijwjst9d/IcS0l13.720p.mkv[/url]
[url]http://k2s.cc/file/524e558a70e0b/IcS0l13.720p.mkv[/url]

I HAVE BACKUP, DONT WORRY ABOUT DEAD LINKS, PLEASE SEND ME PM, AND I WILL REUP ANY LINK
 
Član
Učlanjen(a)
07.07.2009
Poruka
787
Ice Soldiers (2013) 720p BluRay x264 YIFY

Ice-Soldiers-2013-Movie-Poster.jpg


:info:
IMDB

Kod:
http://www.imdb.com/title/tt3104304/?ref_=fn_al_tt_1

:screen:

screenshot_273.png


:download:

Kod:
http://turbobit.net/93aueaxjmg4n.html
 
Poslednja izmena od urednika:
Član
Učlanjen(a)
03.10.2012
Poruka
1.153
Ice Soldiers 2013 1080p BluRay x264-G3LHD


92543front.jpg


Release Name: Ice.Soldiers.2013.1080p.BluRay.x264-G3LHD
Size: 6.55 GB
Video: MKV | 1920×800 | 9193 kbps
Audio: English | AC3 | 640 kbps
Runtime: 1hr 35m
Subtitles: N/A


Kod:
http://www.imdb.com/title/tt3104304/

Genre: Action | Sci-Fi
IMDB Rating: 4.8/10 from 13 users
Directed by: Sturla Gunnarsson
Starring: Dominic Purcell, Adam Beach, Michael Ironside

A scientist discovers the bodies of three frozen genetically modified Russians buried in the Canadian North. Upon thawing
them out he realizes he has unleashed a deadly threat to Western society and must stop them at all costs.



8ghv.jpg



Kod:
http://freakshare.com/files/8n7t9r44/Ice.Soldiers.2013.1080p.BluRay.x264-G3LHD.part1.rar.html
http://freakshare.com/files/yh9y2nve/Ice.Soldiers.2013.1080p.BluRay.x264-G3LHD.part2.rar.html
http://freakshare.com/files/s64ab7l6/Ice.Soldiers.2013.1080p.BluRay.x264-G3LHD.part3.rar.html
http://freakshare.com/files/oxp05q4x/Ice.Soldiers.2013.1080p.BluRay.x264-G3LHD.part4.rar.html
http://freakshare.com/files/hqatczzp/Ice.Soldiers.2013.1080p.BluRay.x264-G3LHD.part5.rar.html
http://freakshare.com/files/mtjejfz5/Ice.Soldiers.2013.1080p.BluRay.x264-G3LHD.part6.rar.html
http://freakshare.com/files/x2ezx8ns/Ice.Soldiers.2013.1080p.BluRay.x264-G3LHD.part7.rar.html
http://freakshare.com/files/h5l7xlnt/Ice.Soldiers.2013.1080p.BluRay.x264-G3LHD.part8.rar.html


http://bitshare.com/files/5tt0srxe/lce.Soldiers.2013.1080p.BluRay.x264-G3LHD.part1.rar.html
http://bitshare.com/files/7kln93h2/Ice.Soldiers.2013.1080p.BluRay.x264-G3LHD.part2.rar.html
http://bitshare.com/files/dtayyyqx/Ice.Soldiers.2013.1080p.BluRay.x264-G3LHD.part3.rar.html
http://bitshare.com/files/664pu8jd/Ice.Soldiers.2013.1080p.BluRay.x264-G3LHD.part4.rar.html
http://bitshare.com/files/aqpj0ygx/Ice.Soldiers.2013.1080p.BluRay.x264-G3LHD.part5.rar.html
http://bitshare.com/files/i937kyed/Ice.Soldiers.2013.1080p.BluRay.x264-G3LHD.part6.rar.html
http://bitshare.com/files/3d9qncpi/Ice.Soldiers.2013.1080p.BluRay.x264-G3LHD.part7.rar.html
http://bitshare.com/files/lwp7lnq8/Ice.Soldiers.2013.1080p.BluRay.x264-G3LHD.part8.rar.html


http://rapidgator.net/file/febf85e497ed5c97f4d43c4cc972cad4/Ice.Soldiers.2013.1080p.BluRay.x264-G3LHD.part1.rar.html
http://rapidgator.net/file/6145941c630dee691ed844ae2f09a178/Ice.Soldiers.2013.1080p.BluRay.x264-G3LHD.part2.rar.html
http://rapidgator.net/file/03ae9a0a59ff6f7d13dfe2cefa4dc547/Ice.Soldiers.2013.1080p.BluRay.x264-G3LHD.part3.rar.html
http://rapidgator.net/file/251b2939e2fde4719fa57cc421eee192/Ice.Soldiers.2013.1080p.BluRay.x264-G3LHD.part4.rar.html
http://rapidgator.net/file/32d2e66e3e2a5da1ca1c9e32a6b39547/Ice.Soldiers.2013.1080p.BluRay.x264-G3LHD.part5.rar.html
http://rapidgator.net/file/06dd77b26484ee8c8d1bba762f8272d0/Ice.Soldiers.2013.1080p.BluRay.x264-G3LHD.part6.rar.html
http://rapidgator.net/file/dd5372b93649b42ea5d785b8ede3f71e/Ice.Soldiers.2013.1080p.BluRay.x264-G3LHD.part7.rar.html
http://rapidgator.net/file/51f562117be7e39ff34aa9b9cf298f79/Ice.Soldiers.2013.1080p.BluRay.x264-G3LHD.part8.rar.html
 
Top