Šta je novo?

I Will Follow You Down (2013)

Član
Učlanjen(a)
09.05.2011
Poruka
7.549
************************************************************
I Will Follow You Down (2013) 1080p BluRay x264 ROVERS
File Size: 6.55 GiB

************************************************************

fallow.jpg


INFO:
Kod:
General
Complete name                            : F:\IWILLF.mkv
Format                                   : Matroska
Format version                           : Version 4 / Version 2
File size                                : 6.55 GiB
Duration                                 : 1h 32mn
Overall bit rate                         : 10.1 Mbps
Encoded date                             : UTC 2014-07-17 00:42:16
Writing application                      : mkvmerge v6.2.0 ('Promised Land') built on Apr 28 2013 12:22:01
Writing library                          : libebml v1.3.0 + libmatroska v1.4.0

Video
ID                                       : 1
Format                                   : AVC
Format/Info                              : Advanced Video Codec
Format profile                           : High@L4.1
Format settings, CABAC                   : Yes
Format settings, ReFrames                : 5 frames
Codec ID                                 : V_MPEG4/ISO/AVC
Duration                                 : 1h 32mn
Bit rate                                 : 8 600 Kbps
Width                                    : 1 920 pixels
Height                                   : 800 pixels
Display aspect ratio                     : 2.40:1
Frame rate mode                          : Constant
Frame rate                               : 23.976 fps
Color space                              : YUV
Chroma subsampling                       : 4:2:0
Bit depth                                : 8 bits
Scan type                                : Progressive
Bits/(Pixel*Frame)                       : 0.234
Stream size                              : 5.44 GiB (83%)
Writing library                          : x264 core 142 r2431 ac76440
Language                                 : English
Default                                  : Yes
Forced                                   : No

Audio
ID                                       : 2
Format                                   : DTS
Format/Info                              : Digital Theater Systems
Mode                                     : 16
Format settings, Endianness              : Big
Codec ID                                 : A_DTS
Duration                                 : 1h 32mn
Bit rate mode                            : Constant
Bit rate                                 : 1 509 Kbps
Channel(s)                               : 6 channels
Channel positions                        : Front: L C R, Side: L R, LFE
Sampling rate                            : 48.0 KHz
Bit depth                                : 24 bits
Compression mode                         : Lossy
Stream size                              : 1 002 MiB (15%)
Language                                 : English
Default                                  : Yes
Forced                                   : No

iMDB:
Kod:
http://www.imdb.com/title/tt2048770/

iwill1080p.png


Single Extraction | No Password | Interchangeable Links: | Working 100% |

Kod:
http://www.ddlstorage.com/phtzjcazxw8j/IWFYD2013.1080p.ROVERS.part1.rar.htm
http://www.ddlstorage.com/mb30avtwe1hm/IWFYD2013.1080p.ROVERS.part2.rar.htm
http://www.ddlstorage.com/9yz6rk0qtwae/IWFYD2013.1080p.ROVERS.part3.rar.htm
http://www.ddlstorage.com/c8uxx6ha4qqr/IWFYD2013.1080p.ROVERS.part4.rar.htm
http://www.ddlstorage.com/j0erg93hrg96/IWFYD2013.1080p.ROVERS.part5.rar.htm

http://rapidgator.net/file/a8e812f07aef5bdf0880e734f2e98d2b/IWFYD2013.1080p.ROVERS.part1.rar.html
http://rapidgator.net/file/363abe6847eac20b3cf46c254e73462e/IWFYD2013.1080p.ROVERS.part2.rar.html
http://rapidgator.net/file/7eabfa835fed645cf7265bee9763f563/IWFYD2013.1080p.ROVERS.part3.rar.html
http://rapidgator.net/file/93ada2f36d0256ca5038ab56b96ec28c/IWFYD2013.1080p.ROVERS.part4.rar.html
http://rapidgator.net/file/94cdb1b1aa000750d78e161338da722f/IWFYD2013.1080p.ROVERS.part5.rar.html

http://uploaded.net/file/pjhvkaf6/IWFYD2013.1080p.ROVERS.part1.rar
http://uploaded.net/file/2v2if963/IWFYD2013.1080p.ROVERS.part2.rar
http://uploaded.net/file/0gn0v8qq/IWFYD2013.1080p.ROVERS.part3.rar
http://uploaded.net/file/hhvsva2e/IWFYD2013.1080p.ROVERS.part4.rar
http://uploaded.net/file/76p5tpjx/IWFYD2013.1080p.ROVERS.part5.rar

http://k2s.cc/file/440c7c7de6e4b/IWFYD2013.1080p.ROVERS.part1.rar
http://k2s.cc/file/a37e9654fe613/IWFYD2013.1080p.ROVERS.part2.rar
http://k2s.cc/file/81ec9e7cf6272/IWFYD2013.1080p.ROVERS.part3.rar
http://k2s.cc/file/cd46ca1e867c3/IWFYD2013.1080p.ROVERS.part4.rar
http://k2s.cc/file/3d3de71e5da11/IWFYD2013.1080p.ROVERS.part5.rar
 
Član
Učlanjen(a)
03.10.2012
Poruka
1.157
I Will Follow You Down (2013) 720p BluRay x264-SubZero


64f37df049e113fc8fda5538836ab8ab.jpg


I Will Follow You Down (2013) 720p BluRay x264-SubZero
Size: 4686510334 bytes (4.36 GiB), duration: 01:32:49, avg.bitrate: 6732 kb/s
Audio: dts, 48000 Hz, 5:1 (eng)
Video: h264, yuv420p, 1280x536, 23.98 fps(r) (eng)
Subtitles: rum eng
Genre: Drama | Mystery | Sci-Fi
Language: English

Kod:
http://www.imdb.com/title/tt2048770/

Description: After the disappearance of a young scientist on a business trip, his son and wife struggle to cope, only to
make a bizarre discovery years later - one that may bring him home.


shakir69_I_Will_Follow_You_Down_2013_720p_Blu_Ra.jpg




Kod:
http://freakshare.com/files/o4lkr801/6579d.I.Will.Follow.You.Down.2013.720p.BluRay.x264SubZero.part1.rar.html
http://freakshare.com/files/r14kcrgj/6579d.I.Will.Follow.You.Down.2013.720p.BluRay.x264SubZero.part2.rar.html
http://freakshare.com/files/zf0aj3qk/6579d.I.Will.Follow.You.Down.2013.720p.BluRay.x264SubZero.part3.rar.html
http://freakshare.com/files/qf4xtk40/6579d.I.Will.Follow.You.Down.2013.720p.BluRay.x264SubZero.part4.rar.html
http://freakshare.com/files/1ocpgmlg/6579d.I.Will.Follow.You.Down.2013.720p.BluRay.x264SubZero.part5.rar.html


http://bitshare.com/files/n2635fab/6579d.I.Will.Follow.You.Down.2013.720p.BluRay.x264SubZero.part1.rar.html
http://bitshare.com/files/c5nrph77/6579d.I.Will.Follow.You.Down.2013.720p.BluRay.x264SubZero.part2.rar.html
http://bitshare.com/files/afut0hpy/6579d.I.Will.Follow.You.Down.2013.720p.BluRay.x264SubZero.part3.rar.html
http://bitshare.com/files/npdbdvdt/6579d.I.Will.Follow.You.Down.2013.720p.BluRay.x264SubZero.part4.rar.html
http://bitshare.com/files/g8m6vkqr/6579d.I.Will.Follow.You.Down.2013.720p.BluRay.x264SubZero.part5.rar.html


https://www.secureupload.eu/urw12t6bv3u6/6579d.I.Will.Follow.You.Down.2013.720p.BluRay.x264SubZero.part1.rar
https://www.secureupload.eu/d2jr5bbaxh0x/6579d.I.Will.Follow.You.Down.2013.720p.BluRay.x264SubZero.part2.rar
https://www.secureupload.eu/vll9o021qhx2/6579d.I.Will.Follow.You.Down.2013.720p.BluRay.x264SubZero.part3.rar
https://www.secureupload.eu/t03saj3j5vx9/6579d.I.Will.Follow.You.Down.2013.720p.BluRay.x264SubZero.part4.rar
https://www.secureupload.eu/yt353tqhath1/6579d.I.Will.Follow.You.Down.2013.720p.BluRay.x264SubZero.part5.rar
 
Top