Šta je novo?

I Spit on Your Grave 3 (2015)

UPLOADER
Učlanjen(a)
14.04.2013
Poruka
14.518
I Spit on Your Grave 3 (2015) 720p & 1080p BluRay x264-ROVERS

01.jpg


Plot: In a continuation of the story line from the 2010 film, Jennifer returns working for a Crisis Hotline, where a serial killer is using the hotline to target rapists. Jennifer’s dark past sends detectives in her direction, but is she the killer they are looking for?

Genre: Crime | Horror | Thriller
Directed by: R.D. Braunstein
Starring: Sarah Butler, Gabriel Hogan, Doug McKeon

02.jpg


Release Name: I.Spit.on.Your.Grave.3.2015.720p.BluRay.x264-ROVERS
Size: 4.37 GB
Video: MKV | 1280×536 | 6195 Kbps
Audio: English | AC3 | 640 Kbps
Runtime: 1h 32mn
Samples: Video @ #1 – #2 – #3

Release Name: I.Spit.on.Your.Grave.3.2015.1080p.BluRay.x264-ROVERS
Size: 6.56 GB
Video: MKV | 1920×800 | 9617 Kbps
Audio: English | AC3 | 640 Kbps
Runtime: 1h 32mn
Samples: Video @ #1 – #2 – #3

IMDB Rating: -/10
Kod:
http://www.imdb.com/title/tt4530884/

My links: Uploaded

720p.BluRay:

Kod:
http://uploaded.net/file/vkm55f41/ISOYG.3.2015.720p.BluRay.x264-ROVERS.part1.rar
http://uploaded.net/file/hvfu0g0w/ISOYG.3.2015.720p.BluRay.x264-ROVERS.part2.rar
http://uploaded.net/file/vh8q5yzn/ISOYG.3.2015.720p.BluRay.x264-ROVERS.part3.rar
http://uploaded.net/file/6amie2qo/ISOYG.3.2015.720p.BluRay.x264-ROVERS.part4.rar
http://uploaded.net/file/eodaagx3/ISOYG.3.2015.720p.BluRay.x264-ROVERS.part5.rar

1080p.BluRay:

Kod:
http://uploaded.net/file/dcq1vvk4/I.Spit.on.Your.Grave.3.2015.1080p.BluRay.x264-ROVERS.part1.rar
http://uploaded.net/file/x44niizy/I.Spit.on.Your.Grave.3.2015.1080p.BluRay.x264-ROVERS.part2.rar
http://uploaded.net/file/gz03vacd/I.Spit.on.Your.Grave.3.2015.1080p.BluRay.x264-ROVERS.part3.rar
http://uploaded.net/file/ebwb82dx/I.Spit.on.Your.Grave.3.2015.1080p.BluRay.x264-ROVERS.part4.rar
http://uploaded.net/file/xrnlah8x/I.Spit.on.Your.Grave.3.2015.1080p.BluRay.x264-ROVERS.part5.rar
http://uploaded.net/file/tzngy41r/I.Spit.on.Your.Grave.3.2015.1080p.BluRay.x264-ROVERS.part6.rar
http://uploaded.net/file/3ssq9cey/I.Spit.on.Your.Grave.3.2015.1080p.BluRay.x264-ROVERS.part7.rar
 
Član
Učlanjen(a)
09.05.2011
Poruka
7.549

I Spit on Your Grave 3 (2015) 1080p BluRay x264 ROVERS
File Size: 6.56 GiB


i-spit.jpg


INFO:
Kod:
General
Complete name                  : I.Spit.on.Your.Grave.3.2015.1080p.BluRay.x264-ROVERS.mkv
Format                         : Matroska
Format version                 : Version 4 / Version 2
File size                      : 6.56 GiB
Duration                       : 1h 32mn
Overall bit rate               : 10.1 Mbps
Encoded date                   : UTC 2015-09-29 23:52:31
Writing application            : mkvmerge v8.3.0 ('Over the Horizon') 64bit
Writing library                : libebml v1.3.1 + libmatroska v1.4.2

Video
ID                             : 1
Format                         : AVC
Format/Info                    : Advanced Video Codec
Format profile                 : High@L4.1
Format settings, CABAC         : Yes
Format settings, ReFrames      : 5 frames
Codec ID                       : V_MPEG4/ISO/AVC
Duration                       : 1h 32mn
Bit rate                       : 9 617 Kbps
Width                          : 1 920 pixels
Height                         : 800 pixels
Display aspect ratio           : 2.40:1
Frame rate mode                : Constant
Frame rate                     : 23.976 fps
Color space                    : YUV
Chroma subsampling             : 4:2:0
Bit depth                      : 8 bits
Scan type                      : Progressive
Bits/(Pixel*Frame)             : 0.261
Stream size                    : 6.02 GiB (92%)
Writing library                : x264 core 148 r2597 e86f3a1
Language                       : English
Default                        : Yes
Forced                         : No

Audio
ID                             : 2
Format                         : AC-3
Format/Info                    : Audio Coding 3
Mode extension                 : CM (complete main)
Format settings, Endianness    : Big
Codec ID                       : A_AC3
Duration                       : 1h 32mn
Bit rate mode                  : Constant
Bit rate                       : 640 Kbps
Channel count                  : 6 channels
Channel positions              : Front: L C R, Side: L R, LFE
Sampling rate                  : 48.0 KHz
Bit depth                      : 16 bits
Compression mode               : Lossy
Stream size                    : 424 MiB (6%)
Language                       : English
Default                        : Yes
Forced                         : No

[b]Title:[/b] I Spit on Your Grave: Vengeance is Mine (2015)
[b]Genres:[/b] Crime, Horror, Thriller
[b]Description:[/b] In a continuation of the story line from the 2010 film, Jennifer returns working for a Crisis Hotline, where a serial killer is using the hotline to target rapists. Jennifer's dark past sends detectives in her direction, but is she the killer they are looking for?
[b]Director:[/b] R.D. Braunstein
[b]Writer:[/b] N/A
[b]Actors:[/b] Sarah Butler, Gabriel Hogan, Karen Strassman, Doug McKeon
[b]Rating:[/b] N/A
[b]Votes:[/b] N/A
[b]Rated:[/b] N/A
[b]Runtime:[/b] N/A

iMDB:
Kod:
http://www.imdb.com/title/tt0369610/

p00019.png


p00020.png


p00021.png


Single Extraction | No Password | Interchangeable Links | Working 100%

Kod:
http://rapidgator.net/file/34df5a39a23a48d426634367d120bca5/1s0YG31080.ROVERS.part1.rar.html
http://rapidgator.net/file/a39d46613b8d847ba378a5ec90a303e5/1s0YG31080.ROVERS.part2.rar.html
http://rapidgator.net/file/e491ffd36d7f4f634ee7033b36c4157c/1s0YG31080.ROVERS.part3.rar.html
http://rapidgator.net/file/dd78fb2f26e8f263da12fee67290867f/1s0YG31080.ROVERS.part4.rar.html
http://rapidgator.net/file/5f011c6b72e73dac766ef2a39527bcb8/1s0YG31080.ROVERS.part5.rar.html
http://rapidgator.net/file/c1a68c409702277c75cb9055f41ec2ea/1s0YG31080.ROVERS.part6.rar.html
http://rapidgator.net/file/34fef6441b8016a8475e65ee1d3e1c7c/1s0YG31080.ROVERS.part7.rar.html

http://uploaded.net/file/ag3dk13q/1s0YG31080.ROVERS.part1.rar
http://uploaded.net/file/1wrtpytl/1s0YG31080.ROVERS.part2.rar
http://uploaded.net/file/6qqf7a3s/1s0YG31080.ROVERS.part3.rar
http://uploaded.net/file/wtfcq3gw/1s0YG31080.ROVERS.part4.rar
http://uploaded.net/file/zmm32q9q/1s0YG31080.ROVERS.part5.rar
http://uploaded.net/file/p8rc8f7z/1s0YG31080.ROVERS.part6.rar
http://uploaded.net/file/czonwu82/1s0YG31080.ROVERS.part7.rar

http://k2s.cc/file/23b2a2babe600/1s0YG31080.ROVERS.part1.rar
http://k2s.cc/file/c0624eb092c83/1s0YG31080.ROVERS.part2.rar
http://k2s.cc/file/1a926228bc231/1s0YG31080.ROVERS.part3.rar
http://k2s.cc/file/98125bc421cf3/1s0YG31080.ROVERS.part4.rar
http://k2s.cc/file/40c08a46e1a6f/1s0YG31080.ROVERS.part5.rar
http://k2s.cc/file/e3aa3378c3de7/1s0YG31080.ROVERS.part6.rar
http://k2s.cc/file/94286d02e6a19/1s0YG31080.ROVERS.part7.rar

http://nitroflare.com/view/428778543DB8AF0/1s0YG31080.ROVERS.part1.rar
http://nitroflare.com/view/F67A188149195D2/1s0YG31080.ROVERS.part2.rar
http://nitroflare.com/view/B165F783914598B/1s0YG31080.ROVERS.part3.rar
http://nitroflare.com/view/DC95C84C0833DF5/1s0YG31080.ROVERS.part4.rar
http://nitroflare.com/view/DC13DF46C285441/1s0YG31080.ROVERS.part5.rar
http://nitroflare.com/view/466C63C2C7755A0/1s0YG31080.ROVERS.part6.rar
http://nitroflare.com/view/4D3347CA3CAF1A1/1s0YG31080.ROVERS.part7.rar

Single Links:
Kod:
http://nitroflare.com/view/85D02B5C81F0C81/I.Spit.on.Your.Grave.3.2015.1080p.BluRay.x264-ROVERS.mkv
 
Top