Šta je novo?
Učlanjen(a)
10.05.2011
Poruka
47
Hyenas (2011)-DVDRip,Xvid-AC3

SANEposter.jpg

Hyenas (2011)-DVDRip,Xvid-AC3


Format : AVI
Format/Info : Audio Video Interleave
Format profile : OpenDML
File size : 2.04 GiB
Duration : 1h 32mn
Overall bit rate : 3 152 Kbps
SANE6.jpg

SANE5.jpg

SANE4.jpg

SANE3.jpg

SANE2.jpg

SANE1.jpg

Video
ID : 0
Format : MPEG-4 Visual
Format profile : Advanced [email protected]
Format settings, BVOP : 2
Format settings, QPel : Yes
Format settings, GMC : No warppoints
Format settings, Matrix : Default (MPEG)
Codec ID : XVID
Codec ID/Hint : XviD
Duration : 1h 32mn
Bit rate : 2 692 Kbps
Width : 720 pixels
Height : 400 pixels
Display aspect ratio : 16:9
Frame rate : 23.976 fps
Color space : YUV
Chroma subsampling : 4:2:0
Bit depth : 8 bits
Scan type : Progressive
Compression mode : Lossy
Bits/(Pixel*Frame) : 0.390
Stream size : 1.74 GiB (85%)
Writing library : XviD 63
Audio
ID : 1
Format : AC-3
Format/Info : Audio Coding 3
Mode extension : CM (complete main)
Codec ID : 2000
Duration : 1h 32mn
Bit rate mode : Constant
Bit rate : 448 Kbps
Channel(s) : 6 channels
Channel positions : Front: L C R, Side: L R, LFE
Sampling rate : 48.0 KHz
Bit depth : 16 bits
Compression mode : Lossy
Stream size : 297 MiB (14%)
Alignment : Split accross interleaves
Interleave, duration : 42 ms (1.00 video frame)
Interleave, preload duration : 500 ms
[/b]
Download
Kod:
http://www.fileserve.com/file/Hqg86Xw/SANEDVDRIP.part1.rar
http://www.fileserve.com/file/7MjgFQJ/SANEDVDRIP.part2.rar
http://www.fileserve.com/file/7tk9BDP/SANEDVDRIP.part3.rar
http://www.fileserve.com/file/fev9u6D/SANEDVDRIP.part4.rar
Kod:
http://www.filesonic.com/file/867261484/SANEDVDRIP.part1.rar
http://www.filesonic.com/file/867266474/SANEDVDRIP.part2.rar
http://www.filesonic.com/file/867270234/SANEDVDRIP.part3.rar
http://www.filesonic.com/file/867273934/SANEDVDRIP.part4.rar
Kod:
http://www.uploadstation.com/file/Dupg3tU/SANEDVDRIP.part1.rar
http://www.uploadstation.com/file/Fzt5kSz/SANEDVDRIP.part2.rar
http://www.uploadstation.com/file/qwRENJu/SANEDVDRIP.part3.rar
http://www.uploadstation.com/file/nqUgbRW/SANEDVDRIP.part4.rar
 
Top