Šta je novo?

Hotel Transylvania 2 (2015)

Član
Učlanjen(a)
09.05.2011
Poruka
7.549
Hotel Transylvania 2 (2015) HDRip XviD AC3-EVO
File Size: 1.4 GB

hotel.jpg


RELEAsEN0TEs
Kod:
RELEASE: Hotel.Transylvania.2.2015.HDRip.XviD.AC3-EVO                                      
Type: Video
Codec: MPEG-4 Video (XVID)
Language: English
Resolution: 720x384
Display resolution: 720x384
Frame rate: 30.000030
Decoded format: Planar 4:2:0 YUV

Type: Audio
Codec: A52 Audio (aka AC3) (ac-3)
Language: English
Channels: 3F2R/LFE
Sample rate: 48000 Hz
Bitrate: 192 kb/s
Media Lenght: 1:29:13
sT0RYLiNE
Kod:
[b]Title:[/b] Hotel Transylvania 2 (2015)
[b]Genres:[/b] Animation, Comedy, Family
[b]Description:[/b] Dracula and his friends try to bring out the monster in his half human, half vampire grandson in order to keep Mavis from leaving the hotel.
[b]Director:[/b] Genndy Tartakovsky
[b]Writer:[/b] Robert Smigel, Adam Sandler
[b]Actors:[/b] Adam Sandler, Andy Samberg, Selena Gomez, Kevin James
[b]Rating:[/b] 7.0
[b]Votes:[/b] 11060
[b]Rated:[/b] PG
[b]Runtime:[/b] 89 min

IMDB Ratings : 7.0/10 >> 14.093 users >> Top 250: #N/A
Kod:
http://www.imdb.com/title/tt2510894/

sCREENsH0Ts

01b7a0a917dc3f7b31c092dda8bcd873.png


4a295de1c5751a0bc11e1c38ff288a98.png


a8e66010fffee612d1b100886df7f91c.png


D0WNL0AD
Kod:
http://rapidgator.net/file/ac51688a0afd982d5e9522d3eb9491a1/HT15HDRipEv0.part1.rar.html
http://rapidgator.net/file/1db1f93ebdd7b52844ae396fd8550abe/HT15HDRipEv0.part2.rar.html
http://rapidgator.net/file/fc978a0b28d6aafbe20fda7dabb20f00/HT15HDRipEv0.part3.rar.html

http://uploaded.net/file/5pecwan0/HT15HDRipEv0.part1.rar
http://uploaded.net/file/vkqsvq4p/HT15HDRipEv0.part2.rar
http://uploaded.net/file/bbst7anb/HT15HDRipEv0.part3.rar

http://k2s.cc/file/5c2f206fc40ef/HT15HDRipEv0.part1.rar
http://k2s.cc/file/0d2b0fab412ac/HT15HDRipEv0.part2.rar
http://k2s.cc/file/a89fb07879960/HT15HDRipEv0.part3.rar

http://nitroflare.com/view/B8688EC1BF88007/HT15HDRipEv0.part1.rar
http://nitroflare.com/view/BAF3D90E3A9B89F/HT15HDRipEv0.part2.rar
http://nitroflare.com/view/985C487B587377F/HT15HDRipEv0.part3.rar

s1NGLELiNK
Kod:
http://rapidgator.net/file/399a0f1b30094f44d68f1199dab91948/HT15HDRip.SingLE.rar.html
http://uploaded.net/file/0yo73eh2/HT15HDRip.SingLE.rar
http://k2s.cc/file/255d5b284c017/HT15HDRip.SingLE.rar
http://nitroflare.com/view/413CEED1768CB1D/HT15HDRip.SingLE.rar
 
Član
Učlanjen(a)
02.03.2013
Poruka
3.108
Hotel Transylvania 2 2015 HDRip XviD AC3-EVO

c_MJfe.jpg


File: 21554484545hlt252.avi
Size: 1472232025 bytes (1.37 GiB), duration: 01:29:13, avg.bitrate: 2200 kb/s
Audio: ac3, 48000 Hz, stereo, 192 kb/s
Video: mpeg4, yuv420p, 720x384, 30.00 fps(r)


21554484545hlt252_s.jpg




If U Like My Post Willing To Buy Premium For High Speed Resumable downloads Pls BuY Premium From This Links

Kod:
http://alfafile.net/file/AwM4

http://rapidgator.net/file/c9c6d2beeda24505d9f1f430ab61cbcb/21554484545hlt252.avi.html


http://www.nitroflare.com/view/1546293F20D27D4/21554484545hlt252.avi


 
Član
Učlanjen(a)
09.05.2011
Poruka
7.549
>>> RobertoWarez Presents Proudly <<<

Title :: HOTEL TRANSYLVANIA 2 (2015)



SCREENSHOTS

9604725ea128c6611c5e93f2d505f6ca.jpg


53d84698a97c6062f1c33e492e3e91d5.jpg


5ecf7ebc6fb5deffdf5e71ab4461f810.jpg



INFORMATION

IMDB Ratings : 7.0/10 >> 14,234 Votes >> Top 250: #N/A

Kod:
http://www.imdb.com/title/tt2510894/

STORYLiNE
The Drac pack is back for an all-new monster comedy adventure in Sony Pictures Animation's Hotel Transylvania 2! Everything seems to be changing for the better at Hotel Transylvania... Dracula's rigid monster-only hotel policy has finally relaxed, opening up its doors to human guests. But behind closed coffins, Drac is worried that his adorable half-human, half-vampire grandson, Dennis, isn't showing signs of being a vampire. So while Mavis is busy visiting her human in-laws with Johnny - and in for a major cultural shock of her own - "Vampa" Drac enlists his friends Frank, Murray, Wayne and Griffin to put Dennis through a "monster-in-training" boot camp. But little do they know that Drac's grumpy and very old, old, old school dad Vlad is about to pay a family visit to the hotel. And when Vlad finds out that his great-grandson is not a pure blood - and humans are now welcome at Hotel Transylvania - things are going to get batty!

RELEASENOTES

Kod:
[NAME]:.........................[ Hotel Transylvania 2
[DIRECTOR]:.....................[ Genndy Tartakovsky
[RELEASE DATE]:.................[ 25 September 2015 (USA)
[GENRE]:........................[ Animation, Comedy, Family
[HDTV SUPPORT]:.................[ Yes
[NO OF FILES]:..................[ 1
[VIDEO]:........................[ MKV - x264
[AUDIO]:........................[ AAC - 2CH
[FILE SIZE]:....................[ 1.45GB
[RESOLUTION]:...................[ 1920x1040
[FRAME RATE]:...................[ 30 fps
[LANGUAGE]:.....................[ English
[SUBTITLES]:....................[ English [Softcoded] - muxed
[RUNTIME]:......................[ 01:29:13
[ENCODER]:......................[ ShAaNiG
[SOURCE]:.......................[ 1080p.HDRiP-EVO
DOWNLOAD

Kod:
http://k2s.cc/file/5d3ed84c26049/Hotel.Transylvania.2.1080p.HDRip.ShAaNiG.part1.rar
http://k2s.cc/file/96e61a8fdd9b7/Hotel.Transylvania.2.1080p.HDRip.ShAaNiG.part2.rar
http://k2s.cc/file/c21cbde4b010c/Hotel.Transylvania.2.1080p.HDRip.ShAaNiG.part3.rar

s1NGLELiNK
Kod:
http://k2s.cc/file/1791212f53f38/Hotel.Transylvania.2.1080p.rar
 
Poslednja izmena od urednika:
Član
Učlanjen(a)
09.05.2011
Poruka
7.549

Hotel Transylvania 2 2015 HDRip XViD-ETRG
File Size: 705.24 MB


1113000a.jpg


RELEAsEN0TEs
Kod:
General
Format                         : AVI
Format/Info                    : Audio Video Interleave
File size                      : 699 MiB
Duration                       : 1h 28mn
Overall bit rate               : 1 103 Kbps
Writing application            : VirtualDubMod 1.5.10.2 (build 2540/release)
Writing library                : VirtualDubMod build 2540/release

Video
ID                             : 0
Format                         : MPEG-4 Visual
Codec ID                       : XVID
Codec ID/Hint                  : XviD
Duration                       : 1h 28mn
Bit rate                       : 922 Kbps
Width                          : 640 pixels
Height                         : 344 pixels
Display aspect ratio           : 1.85:1
Frame rate                     : 23.976 fps
Color space                    : YUV
Chroma subsampling             : 4:2:0
Compression mode               : Lossy
Bits/(Pixel*Frame)             : 0.175
Stream size                    : 584 MiB (84%)

Audio
ID                             : 1
Format                         : MPEG Audio
Codec ID                       : 55
Codec ID/Hint                  : MP3
Duration                       : 1h 28mn
Bit rate                       : 128 Kbps
Channel count                  : 2 channels
Sampling rate                  : 48.0 KHz
Compression mode               : Lossy
Stream size                    : 81.1 MiB (12%)
Alignment                      : Aligned on interleaves

IMDB Ratings : 6.9/10 >> 23.337 users >> Top 250: #N/A
Kod:
http://www.imdb.com/title/tt2510894/

sCREENsH0Ts

hotel.png



< SingLELiNK >
Kod:
http://nitroflare.com/view/AE9B48C71DEA2D3/Hotel.Transylvania.2.2015.HDRip.XViD-ETRG.rar

 
Poslednja izmena od urednika:
Član
Učlanjen(a)
02.03.2013
Poruka
3.108
Hotel Transylvania 2 2015 BDRip x264-DRONES

X90e_B8t.jpg


File: 21645485httt25252.mkv
Size: 581402552 bytes (554.47 MiB), duration: 01:29:18, avg.bitrate: 868 kb/s
Audio: aac, 48000 Hz, stereo (eng)
Video: h264, yuv420p, 720x388, 23.98 fps(r) (eng)

21645485httt25252_s.jpg



Kod:
http://keep2s.cc/file/395c813a1039c/21645485httt25252.mkv


http://rapidgator.net/file/53c383ef6fc54d3732f242bbef6fec08/21645485httt25252.mkv.html

http://www.nitroflare.com/view/E7D6D2667677941/21645485httt25252.mkv

 
UPLOADER
Učlanjen(a)
14.04.2013
Poruka
14.534
Hotel Transylvania 2 (2015) 720p & 1080p BluRay x264-DRONES

r4QUhlo.jpg


IMDB Rating: 6.9/10 from 22,746 users Metascore: 44/100
Kod:
http://www.imdb.com/title/tt2510894/

Plot: The Drac pack is back for an all-new monster comedy adventure in Sony Pictures Animation’s Hotel Transylvania 2! Everything seems to be changing for the better at Hotel Transylvania… Dracula’s rigid monster-only hotel policy has finally relaxed, opening up its doors to human guests. But behind closed coffins, Drac is worried that his adorable half-human, half-vampire grandson, Dennis, isn’t showing signs of being a vampire. So while Mavis is busy visiting her human in-laws with Johnny – and in for a major cultural shock of her own – “Vampa” Drac enlists his friends Frank, Murray, Wayne and Griffin to put Dennis through a “monster-in-training” boot camp. But little do they know that Drac’s grumpy and very old, old, old school dad Vlad is about to pay a family visit to the hotel. And when Vlad finds out that his great-grandson is not a pure blood – and humans are now welcome at Hotel Transylvania – things are going to get batty!

Genre: Animation | Comedy | Family | Fantasy
IMDB Rating: 6.9/10 from 22,746 users Metascore: 44/100
Directed by: Genndy Tartakovsky
Starring: Adam Sandler, Andy Samberg, Selena Gomez

hq610Rw.jpg


Release Name: Hotel.Transylvania.2.2015.720p.BluRay.x264-DRONES
Size: 2.64 GB
Video: MKV | 1280×688 | 2730 Kbps
Audio: English | DTS | 1509 Kbps
Runtime: 1h 29mn

Release Name: Hotel.Transylvania.2.2015.1080p.BluRay.x264-DRONES
Size: 4.36 GB
Video: MKV | 1920×1040 | 5496 Kbps
Audio: English | DTS | 1509 Kbps
Runtime: 1h 29mn

gJ1cmsM.png
AUWwyEq.png


720p.BluRay:

Kod:
http://www.filefactory.com/file/3x0q6c64s8zp/HT720p.DR0NEs.part1.rar
http://www.filefactory.com/file/2oyrl99of745/HT720p.DR0NEs.part2.rar
http://www.filefactory.com/file/3i84xxzwkml7/HT720p.DR0NEs.part3.rar
http://uploaded.net/file/x7yeymyl/HT720p.DR0NEs.part3.rar
http://uploaded.net/file/vh6c9w7o/HT720p.DR0NEs.part2.rar
http://uploaded.net/file/2yjv66ja/HT720p.DR0NEs.part1.rar

1080p.BluRay:

Kod:
http://www.filefactory.com/file/19e51ew81p4r/Hotel.Transylvania.2.2015.1080p.BluRay.x264-DRONES.part1.rar
http://www.filefactory.com/file/67bxcoap53nh/Hotel.Transylvania.2.2015.1080p.BluRay.x264-DRONES.part2.rar
http://www.filefactory.com/file/1capoz3gh0ip/Hotel.Transylvania.2.2015.1080p.BluRay.x264-DRONES.part3.rar
http://www.filefactory.com/file/5mcswqv5pd4n/Hotel.Transylvania.2.2015.1080p.BluRay.x264-DRONES.part4.rar
http://www.filefactory.com/file/103d6nzkyr5t/Hotel.Transylvania.2.2015.1080p.BluRay.x264-DRONES.part5.rar
http://uploaded.net/file/dt89hmph/Hotel.Transylvania.2.2015.1080p.BluRay.x264-DRONES.part5.rar
http://uploaded.net/file/lkz8dwlk/Hotel.Transylvania.2.2015.1080p.BluRay.x264-DRONES.part4.rar
http://uploaded.net/file/8r7a33zn/Hotel.Transylvania.2.2015.1080p.BluRay.x264-DRONES.part3.rar
http://uploaded.net/file/9owttmcx/Hotel.Transylvania.2.2015.1080p.BluRay.x264-DRONES.part2.rar
http://uploaded.net/file/t2vizoof/Hotel.Transylvania.2.2015.1080p.BluRay.x264-DRONES.part1.rar
 
Poslednja izmena:
Učlanjen(a)
30.01.2015
Poruka
1.764
SJVC33Q.png


Hotel Transylvania 2 2015 720p BRRiP XViD AC3-budyzer
Language: English
1hr 29mn | BDRip | Avi | 1280 x 688 | XviD @ 2887Kbps | AC3 @ 640 Kbps | 2.21GB
Genre(s): Animation, Comedy, Family, Fantasy | Subtitles: N/A
IMDb Info:
Kod:
http://www.imdb.com/title/tt2510894

Dracula and his friends try to bring out the monster in his half human, half vampire grandson in order to keep Mavis from leaving the hotel.




a159e9ec63edf1287f514b3b503efa08.jpg

Download

Kod:
http://rapidgator.net/file/6a583b0ee7dc1d605b8cfba16bfdb3e6/Hotel.Transylvania.budyzer.part1.rar.html
http://rapidgator.net/file/73b3527703801c00f7c5d49a13af5be6/Hotel.Transylvania.budyzer.part2.rar.html
http://rapidgator.net/file/90baa36c8f05762d13ea1f6542e356a7/Hotel.Transylvania.budyzer.part3.rar.html

http://www.nitroflare.com/view/868747285E6C3B1/Hotel.Transylvania.budyzer.part1.rar
http://www.nitroflare.com/view/E3461E048B8D30B/Hotel.Transylvania.budyzer.part2.rar
http://www.nitroflare.com/view/A35B5D41FE5BFD3/Hotel.Transylvania.budyzer.part3.rar
 
Član
Učlanjen(a)
02.03.2013
Poruka
3.108
Hotel Transylvania 2 2015 1080p BluRay x264 DTS-HD MA 5.1-RARBG

X90e_B8t.jpg


File: Hotel.Transylvania.2.2015.1080p.BluRay.x264.DTS-HD.MA.5.1-RARBG.mkv
Size: 5170096130 bytes (4.82 GiB), duration: 01:29:18, avg.bitrate: 7719 kb/s
Audio: dts, 48000 Hz, 5:1 (eng)
Video: h264, yuv420p, 1920x1040, 23.98 fps(r) (eng)
Subtitles: eng eng



http://s4.postimg.org/p75x9js59/16672287187004437193.png[/mg]

[img]http://s4.postimg.org/zejv87ozh/40280856969092700918.png

81829072060036769276.png



Kod:
http://rapidgator.net/file/857dc886dac4b4a65e892ed700635cc7/216454845htly256585.part4.rar.html
http://rapidgator.net/file/ad09a878456247948c99cff0c84b2029/216454845htly256585.part2.rar.html
http://rapidgator.net/file/820c154055f629f93d7e4964212297e1/216454845htly256585.part1.rar.html
http://rapidgator.net/file/a9f9c4599fe22ec24e534abfb8f26450/216454845htly256585.part3.rar.html
http://rapidgator.net/file/9858ddba6b8d553b98b430d7a24a93c1/216454845htly256585.part5.rar.html

Kod:
https://www.secureupload.eu/kfaybsx63cmi/216454845htly256585.part5.rar
https://www.secureupload.eu/jbobax3reaqr/216454845htly256585.part4.rar
https://www.secureupload.eu/xv2f2ffeir63/216454845htly256585.part1.rar
https://www.secureupload.eu/ctvqplhk52re/216454845htly256585.part2.rar
https://www.secureupload.eu/hmivlu1nnv6k/216454845htly256585.part3.rar

Kod:
http://uploaded.net/file/r3ligpkx/216454845htly256585.part2.rar
http://uploaded.net/file/20u0a8xv/216454845htly256585.part1.rar
http://uploaded.net/file/d9382dwg/216454845htly256585.part4.rar
http://uploaded.net/file/z7smvb18/216454845htly256585.part5.rar
http://uploaded.net/file/cx5hf854/216454845htly256585.part3.rar

 
Član
Učlanjen(a)
02.03.2013
Poruka
3.108
Hotel Transylvania 2 (2015) 1080p 3D BluRay Half-SBS x264 DTS-HD MA 5.1-RARBG

7_GGcn_Zy.jpg


Kod:
Video
ID                                       : 1
Format                                   : AVC
Format/Info                              : Advanced Video Codec
Format profile                           : High@L4.1
Format settings, CABAC                   : Yes
Format settings, ReFrames                : 2 frames
Codec ID                                 : V_MPEG4/ISO/AVC
Duration                                 : 1h 29mn
Nominal bit rate                         : 15.5 Mbps
Width                                    : 1 920 pixels
Height                                   : 1 080 pixels
Display aspect ratio                     : 16:9
Frame rate mode                          : Constant
Frame rate                               : 23.976 (24000/1001) fps
Color space                              : YUV
Chroma subsampling                       : 4:2:0
Bit depth                                : 8 bits
Scan type                                : Progressive
Bits/(Pixel*Frame)                       : 0.312
Title                                    : Hotel.Transylvania.2.2015.1080p.3D.BluRay.Half-SBS.x264.DTS-HD.MA.5.1-RARBG
Writing library                          : x264 core 142
Encoding settings                        : cabac=1 / ref=1 / deblock=1:-1:-1 / analyse=0x3:0 / me=hex / subme=5 / psy=0 / mixed_ref=0 / me_range=16 / chroma_me=1 / trellis=0 / 8x8dct=1 / cqm=0 / deadzone=21,11 / fast_pskip=1 / chroma_qp_offset=0 / threads=8 / lookahead_threads=2 / sliced_threads=0 / nr=0 / decimate=1 / interlaced=0 / bluray_compat=0 / constrained_intra=0 / bframes=2 / b_pyramid=0 / b_adapt=1 / b_bias=0 / direct=1 / weightb=1 / open_gop=0 / weightp=0 / keyint=24 / keyint_min=13 / scenecut=40 / intra_refresh=0 / rc=abr / mbtree=0 / bitrate=15500 / ratetol=1.0 / qcomp=0.60 / qpmin=0 / qpmax=69 / qpstep=4 / ip_ratio=1.40 / pb_ratio=1.30 / aq=1:1.00
Default                                  : Yes
Forced                                   : No
Color range                              : Limited
Color primaries                          : BT.709
Transfer characteristics                 : BT.709
Matrix coefficients                      : BT.709

Audio #1
ID                                       : 2
Format                                   : DTS
Format/Info                              : Digital Theater Systems
Format profile                           : MA / Core
Mode                                     : 16
Format settings, Endianness              : Big
Codec ID                                 : A_DTS
Duration                                 : 1h 29mn
Bit rate mode                            : Variable / Constant
Bit rate                                 : Unknown / 1 509 Kbps
Channel(s)                               : 6 channels
Channel positions                        : Front: L C R, Side: L R, LFE
Sampling rate                            : 48.0 KHz
Frame rate                               : 93.750 fps (512 spf)
Bit depth                                : 16 bits
Compression mode                         : Lossless / Lossy
Title                                    : Hotel.Transylvania.2.2015.1080p.3D.BluRay.Half-SBS.x264.DTS-HD.MA.5.1-RARBG
Language                                 : English
Default                                  : Yes
Forced                                   : No

Audio #2
ID                                       : 3
Format                                   : DTS
Format/Info                              : Digital Theater Systems
Mode                                     : 16
Format settings, Endianness              : Big
Codec ID                                 : A_DTS
Duration                                 : 1h 29mn
Bit rate mode                            : Constant
Bit rate                                 : 1 509 Kbps
Channel(s)                               : 6 channels
Channel positions                        : Front: L C R, Side: L R, LFE
Sampling rate                            : 48.0 KHz
Frame rate                               : 93.750 fps (512 spf)
Bit depth                                : 16 bits
Compression mode                         : Lossy
Stream size                              : 964 MiB (7%)
Title                                    : Hotel.Transylvania.2.2015.1080p.3D.BluRay.Half-SBS.x264.DTS-HD.MA.5.1-RARBG
Language                                 : English
Default                                  : No
Forced                                   : No

Audio #3
ID                                       : 4
Format                                   : AC-3
Format/Info                              : Audio Coding 3
Mode extension                           : CM (complete main)
Format settings, Endianness              : Big
Codec ID                                 : A_AC3
Duration                                 : 1h 29mn
Bit rate mode                            : Constant
Bit rate                                 : 640 Kbps
Channel(s)                               : 6 channels
Channel positions                        : Front: L C R, Side: L R, LFE
Sampling rate                            : 48.0 KHz
Frame rate                               : 31.250 fps (1536 spf)
Compression mode                         : Lossy
Stream size                              : 409 MiB (3%)
Title                                    : Hotel.Transylvania.2.2015.1080p.3D.BluRay.Half-SBS.x264.DTS-HD.MA.5.1-RARBG
Language                                 : English
Default                                  : No
Forced                                   : No

Audio #4
ID                                       : 5
Format                                   : AC-3
Format/Info                              : Audio Coding 3
Mode extension                           : CM (complete main)
Format settings, Endianness              : Big
Codec ID                                 : A_AC3
Duration                                 : 1h 29mn
Bit rate mode                            : Constant
Bit rate                                 : 640 Kbps
Channel(s)                               : 6 channels
Channel positions                        : Front: L C R, Side: L R, LFE
Sampling rate                            : 48.0 KHz
Frame rate                               : 31.250 fps (1536 spf)
Compression mode                         : Lossy
Stream size                              : 409 MiB (3%)
Title                                    : Hotel.Transylvania.2.2015.1080p.3D.BluRay.Half-SBS.x264.DTS-HD.MA.5.1-RARBG
Language                                 : French
Default                                  : No
Forced                                   : No

Audio #5
ID                                       : 6
Format                                   : AC-3
Format/Info                              : Audio Coding 3
Mode extension                           : CM (complete main)
Format settings, Endianness              : Big
Codec ID                                 : A_AC3
Duration                                 : 1h 29mn
Bit rate mode                            : Constant
Bit rate                                 : 640 Kbps
Channel(s)                               : 6 channels
Channel positions                        : Front: L C R, Side: L R, LFE
Sampling rate                            : 48.0 KHz
Frame rate                               : 31.250 fps (1536 spf)
Compression mode                         : Lossy
Stream size                              : 409 MiB (3%)
Title                                    : Hotel.Transylvania.2.2015.1080p.3D.BluRay.Half-SBS.x264.DTS-HD.MA.5.1-RARBG
Language                                 : French
Default                                  : No
Forced                                   : No

Audio #6
ID                                       : 7
Format                                   : AC-3
Format/Info                              : Audio Coding 3
Mode extension                           : CM (complete main)
Format settings, Endianness              : Big
Codec ID                                 : A_AC3
Duration                                 : 1h 29mn
Bit rate mode                            : Constant
Bit rate                                 : 640 Kbps
Channel(s)                               : 6 channels
Channel positions                        : Front: L C R, Side: L R, LFE
Sampling rate                            : 48.0 KHz
Frame rate                               : 31.250 fps (1536 spf)
Compression mode                         : Lossy
Stream size                              : 409 MiB (3%)
Title                                    : Hotel.Transylvania.2.2015.1080p.3D.BluRay.Half-SBS.x264.DTS-HD.MA.5.1-RARBG
Language                                 : Spanish
Default                                  : No
Forced                                   : No

Audio #7
ID                                       : 8
Format                                   : AC-3
Format/Info                              : Audio Coding 3
Mode extension                           : CM (complete main)
Format settings, Endianness              : Big
Codec ID                                 : A_AC3
Duration                                 : 1h 29mn
Bit rate mode                            : Constant
Bit rate                                 : 192 Kbps
Channel(s)                               : 2 channels
Channel positions                        : Front: L R
Sampling rate                            : 48.0 KHz
Frame rate                               : 31.250 fps (1536 spf)
Compression mode                         : Lossy
Stream size                              : 123 MiB (1%)
Title                                    : Hotel.Transylvania.2.2015.1080p.3D.BluRay.Half-SBS.x264.DTS-HD.MA.5.1-RARBG
Language                                 : English
Default                                  : No
Forced                                   : No

Audio #8
ID                                       : 9
Format                                   : AC-3
Format/Info                              : Audio Coding 3
Mode extension                           : CM (complete main)
Format settings, Endianness              : Big
Codec ID                                 : A_AC3
Duration                                 : 1h 29mn
Bit rate mode                            : Constant
Bit rate                                 : 192 Kbps
Channel(s)                               : 2 channels
Channel positions                        : Front: L R
Sampling rate                            : 48.0 KHz
Frame rate                               : 31.250 fps (1536 spf)
Compression mode                         : Lossy
Stream size                              : 123 MiB (1%)
Title                                    : Hotel.Transylvania.2.2015.1080p.3D.BluRay.Half-SBS.x264.DTS-HD.MA.5.1-RARBG
Language                                 : English
Default                                  : No
Forced                                   : No

note : This File Has Audio English DTS HDMA 5.1 & AC3 5.1
French Spanish Ac3 5.1
Subs : English,spanish,french



00322113115711767496.png


03919597556949556424.png


83317597753715757626.png



Kod:
http://rapidgator.net/file/92593974536db2bfddb70e58b43171fb/216454845hts3d2658585.part04.rar.html
http://rapidgator.net/file/8ff6b7d27055f154923d61ab1b855b5b/216454845hts3d2658585.part13.rar.html
http://rapidgator.net/file/a7dea08bef1b6ef37b904cb2b734d203/216454845hts3d2658585.part01.rar.html
http://rapidgator.net/file/7e6695184115aa34a697bca31a0983d6/216454845hts3d2658585.part14.rar.html
http://rapidgator.net/file/db7f38842ee7cfaaa9f469d1948b961b/216454845hts3d2658585.part10.rar.html
http://rapidgator.net/file/cf73501b8efdfbbc2db5dc040893a761/216454845hts3d2658585.part08.rar.html
http://rapidgator.net/file/4df2d4ed0307848b406b570b13947e3e/216454845hts3d2658585.part11.rar.html
http://rapidgator.net/file/5ed9c38b23b4cec17d6bd46b9683ccbc/216454845hts3d2658585.part05.rar.html
http://rapidgator.net/file/226296a603c64f1bb209cbd3f9098286/216454845hts3d2658585.part07.rar.html
http://rapidgator.net/file/050b6ee73a5b790ce15c5406e899d933/216454845hts3d2658585.part09.rar.html
http://rapidgator.net/file/85940422a7cadc093038a9919cb8ed8f/216454845hts3d2658585.part12.rar.html
http://rapidgator.net/file/8ec1be522c498aaae7d716dfd9a3ff55/216454845hts3d2658585.part06.rar.html
http://rapidgator.net/file/86a9d92967ed71bf02f44f66ee50682d/216454845hts3d2658585.part03.rar.html
http://rapidgator.net/file/d2fa1070d5fd80d763f71351ef201211/216454845hts3d2658585.part02.rar.html
http://rapidgator.net/file/2d7d8cdd9cba7aec083d049689214ca4/216454845hts3d2658585.part15.rar.html

Kod:
https://www.secureupload.eu/71n1gm0y7392/216454845hts3d2658585.part01.rar
https://www.secureupload.eu/0r6oru7kq477/216454845hts3d2658585.part02.rar
https://www.secureupload.eu/c7hcrog5j8h9/216454845hts3d2658585.part03.rar
https://www.secureupload.eu/vl4goim6d5ih/216454845hts3d2658585.part04.rar
https://www.secureupload.eu/retjug0cy3vd/216454845hts3d2658585.part05.rar
https://www.secureupload.eu/4pug27sb2uw4/216454845hts3d2658585.part06.rar
https://www.secureupload.eu/aaha03bss5nr/216454845hts3d2658585.part07.rar
https://www.secureupload.eu/ptnh5azfiarn/216454845hts3d2658585.part08.rar
https://www.secureupload.eu/swhrd1jgb0qv/216454845hts3d2658585.part09.rar
https://www.secureupload.eu/avry44nwb3l1/216454845hts3d2658585.part10.rar
https://www.secureupload.eu/7ycni75tp2le/216454845hts3d2658585.part11.rar
https://www.secureupload.eu/saauh6drcyyt/216454845hts3d2658585.part12.rar
https://www.secureupload.eu/usn16zfvj63r/216454845hts3d2658585.part13.rar
https://www.secureupload.eu/tz2ru3tqllcc/216454845hts3d2658585.part14.rar
https://www.secureupload.eu/7lna6g6d0p6r/216454845hts3d2658585.part15.rar

Kod:
http://uploaded.net/file/mf99iyp2/216454845hts3d2658585.part10.rar
http://uploaded.net/file/vbz37myd/216454845hts3d2658585.part04.rar
http://uploaded.net/file/swq380jh/216454845hts3d2658585.part09.rar
http://uploaded.net/file/30z4wror/216454845hts3d2658585.part13.rar
http://uploaded.net/file/ajxqxmir/216454845hts3d2658585.part11.rar
http://uploaded.net/file/dcz9vyu3/216454845hts3d2658585.part06.rar
http://uploaded.net/file/ahrdrfwh/216454845hts3d2658585.part08.rar
http://uploaded.net/file/frc107fx/216454845hts3d2658585.part03.rar
http://uploaded.net/file/rt0zepco/216454845hts3d2658585.part02.rar
http://uploaded.net/file/ort4i7pi/216454845hts3d2658585.part14.rar
http://uploaded.net/file/sm4cl9ez/216454845hts3d2658585.part05.rar
http://uploaded.net/file/jfz5i1r7/216454845hts3d2658585.part15.rar
http://uploaded.net/file/mfwo7ksl/216454845hts3d2658585.part12.rar
http://uploaded.net/file/yuu52i44/216454845hts3d2658585.part07.rar
http://uploaded.net/file/7b3od4cv/216454845hts3d2658585.part01.rar

 
Član
Učlanjen(a)
02.03.2013
Poruka
3.108
Hotel Transylvania 2 (2015) 1080p 3D BluRay Half-OU x264 DTS-HD MA 5.1-RARBG

7_GGcn_Zy.jpg



Kod:
File: Hotel.Transylvania.2.2015.1080p.3D.BluRay.Half-OU.x264.DTS-HD.MA.5.1-RARBG.mkv
Size: 15410667844 bytes (14.35 GiB), duration: 01:29:18, avg.bitrate: 23010 kb/s
Audio: dts, 48000 Hz, 5:1 (eng)
Audio: dts, 48000 Hz, 5:1 (eng)
Audio: ac3, 48000 Hz, 5:1 (eng)
Audio: ac3, 48000 Hz, 5:1 (fre)
Audio: ac3, 48000 Hz, 5:1 (fre)
Audio: ac3, 48000 Hz, 5:1 (spa)
Audio: ac3, 48000 Hz, stereo (eng)
Audio: ac3, 48000 Hz, stereo (eng)
Video: h264, yuv420p, 1920x1080, 23.98 fps(r)
Subtitles: eng eng fre spa eng spa eng spa fre

note : This File Has Audio English DTS HDMA 5.1 & AC3 5.1
French Spanish Ac3 5.1
Subs : English,spanish,french



26860484144624858242.png


41273444836635566999.png


70074712251789122467.png


Kod:
https://www.secureupload.eu/6fotqvxf2d41/Hotel.Transylvania.2.2015.1080p.3D.BluRay.Half-OU.x264.DTS-HD.MA.5.1-RARBG.mkv.part01.rar
https://www.secureupload.eu/wve0t56bq1l6/Hotel.Transylvania.2.2015.1080p.3D.BluRay.Half-OU.x264.DTS-HD.MA.5.1-RARBG.mkv.part02.rar
https://www.secureupload.eu/do29bmi6i5hq/Hotel.Transylvania.2.2015.1080p.3D.BluRay.Half-OU.x264.DTS-HD.MA.5.1-RARBG.mkv.part03.rar
https://www.secureupload.eu/n55s76pd6ep4/Hotel.Transylvania.2.2015.1080p.3D.BluRay.Half-OU.x264.DTS-HD.MA.5.1-RARBG.mkv.part04.rar
https://www.secureupload.eu/fvjtkgz2qr52/Hotel.Transylvania.2.2015.1080p.3D.BluRay.Half-OU.x264.DTS-HD.MA.5.1-RARBG.mkv.part05.rar
https://www.secureupload.eu/990my8370ufb/Hotel.Transylvania.2.2015.1080p.3D.BluRay.Half-OU.x264.DTS-HD.MA.5.1-RARBG.mkv.part06.rar
https://www.secureupload.eu/tb30u7zrw7qs/Hotel.Transylvania.2.2015.1080p.3D.BluRay.Half-OU.x264.DTS-HD.MA.5.1-RARBG.mkv.part07.rar
https://www.secureupload.eu/3th8zjhsvdpt/Hotel.Transylvania.2.2015.1080p.3D.BluRay.Half-OU.x264.DTS-HD.MA.5.1-RARBG.mkv.part08.rar
https://www.secureupload.eu/mskp4ntlpr6w/Hotel.Transylvania.2.2015.1080p.3D.BluRay.Half-OU.x264.DTS-HD.MA.5.1-RARBG.mkv.part09.rar
https://www.secureupload.eu/c24hzmcy5ri6/Hotel.Transylvania.2.2015.1080p.3D.BluRay.Half-OU.x264.DTS-HD.MA.5.1-RARBG.mkv.part10.rar
https://www.secureupload.eu/vu3cg8uw8sq1/Hotel.Transylvania.2.2015.1080p.3D.BluRay.Half-OU.x264.DTS-HD.MA.5.1-RARBG.mkv.part11.rar
https://www.secureupload.eu/pgbkbgdhshpp/Hotel.Transylvania.2.2015.1080p.3D.BluRay.Half-OU.x264.DTS-HD.MA.5.1-RARBG.mkv.part12.rar
https://www.secureupload.eu/oty8ixz1440m/Hotel.Transylvania.2.2015.1080p.3D.BluRay.Half-OU.x264.DTS-HD.MA.5.1-RARBG.mkv.part13.rar
https://www.secureupload.eu/d5lsueflwwwu/Hotel.Transylvania.2.2015.1080p.3D.BluRay.Half-OU.x264.DTS-HD.MA.5.1-RARBG.mkv.part14.rar
https://www.secureupload.eu/8qv5dmiqoaed/Hotel.Transylvania.2.2015.1080p.3D.BluRay.Half-OU.x264.DTS-HD.MA.5.1-RARBG.mkv.part15.rar

Kod:
http://rapidgator.net/file/ae1da6958dec838a84bf9ad6f092ae8d/Hotel.Transylvania.2.2015.1080p.3D.BluRay.Half-OU.x264.DTS-HD.MA.5.1-RARBG.mkv.part12.rar.html
http://rapidgator.net/file/07defdef7036d4f82330292ce32d7009/Hotel.Transylvania.2.2015.1080p.3D.BluRay.Half-OU.x264.DTS-HD.MA.5.1-RARBG.mkv.part03.rar.html
http://rapidgator.net/file/5a9af81c5726877da3a140f6e36f03d4/Hotel.Transylvania.2.2015.1080p.3D.BluRay.Half-OU.x264.DTS-HD.MA.5.1-RARBG.mkv.part08.rar.html
http://rapidgator.net/file/6189881dfa26e79bc827767f05cb4058/Hotel.Transylvania.2.2015.1080p.3D.BluRay.Half-OU.x264.DTS-HD.MA.5.1-RARBG.mkv.part06.rar.html
http://rapidgator.net/file/cf4b85e6da4d490ef170ab6d630f080d/Hotel.Transylvania.2.2015.1080p.3D.BluRay.Half-OU.x264.DTS-HD.MA.5.1-RARBG.mkv.part15.rar.html
http://rapidgator.net/file/ddb39067f79f7f9b2a97e4e8603cbb6e/Hotel.Transylvania.2.2015.1080p.3D.BluRay.Half-OU.x264.DTS-HD.MA.5.1-RARBG.mkv.part10.rar.html
http://rapidgator.net/file/7e539e39fe859673a4f4d04213dd25f2/Hotel.Transylvania.2.2015.1080p.3D.BluRay.Half-OU.x264.DTS-HD.MA.5.1-RARBG.mkv.part09.rar.html
http://rapidgator.net/file/673425e87d0368da122fa76d6404b1d5/Hotel.Transylvania.2.2015.1080p.3D.BluRay.Half-OU.x264.DTS-HD.MA.5.1-RARBG.mkv.part14.rar.html
http://rapidgator.net/file/d93ba48186a651d60ccc7ef8d22a0aff/Hotel.Transylvania.2.2015.1080p.3D.BluRay.Half-OU.x264.DTS-HD.MA.5.1-RARBG.mkv.part11.rar.html
http://rapidgator.net/file/5b1a944a437df8ee5d54a9c3f0161cda/Hotel.Transylvania.2.2015.1080p.3D.BluRay.Half-OU.x264.DTS-HD.MA.5.1-RARBG.mkv.part05.rar.html
http://rapidgator.net/file/c2046f1ea3146a1984ab7b4cce8c59b2/Hotel.Transylvania.2.2015.1080p.3D.BluRay.Half-OU.x264.DTS-HD.MA.5.1-RARBG.mkv.part02.rar.html
http://rapidgator.net/file/822e4ada1c11c80cf95a04f57daa33ff/Hotel.Transylvania.2.2015.1080p.3D.BluRay.Half-OU.x264.DTS-HD.MA.5.1-RARBG.mkv.part13.rar.html
http://rapidgator.net/file/540961f0d54e0460ff3d84e2c15b186d/Hotel.Transylvania.2.2015.1080p.3D.BluRay.Half-OU.x264.DTS-HD.MA.5.1-RARBG.mkv.part07.rar.html
http://rapidgator.net/file/6cbed0bb8dbb6ebb16560f2590e5a361/Hotel.Transylvania.2.2015.1080p.3D.BluRay.Half-OU.x264.DTS-HD.MA.5.1-RARBG.mkv.part01.rar.html
http://rapidgator.net/file/c4375b3241c7568852d32218bf45a3a6/Hotel.Transylvania.2.2015.1080p.3D.BluRay.Half-OU.x264.DTS-HD.MA.5.1-RARBG.mkv.part04.rar.html


Kod:
http://uploaded.net/file/8wb6cwaz/Hotel.Transylvania.2.2015.1080p.3D.BluRay.Half-OU.x264.DTS-HD.MA.5.1-RARBG.mkv.part03.rar
http://uploaded.net/file/rzcfmhsz/Hotel.Transylvania.2.2015.1080p.3D.BluRay.Half-OU.x264.DTS-HD.MA.5.1-RARBG.mkv.part08.rar
http://uploaded.net/file/nxscson1/Hotel.Transylvania.2.2015.1080p.3D.BluRay.Half-OU.x264.DTS-HD.MA.5.1-RARBG.mkv.part11.rar
http://uploaded.net/file/9p3pdair/Hotel.Transylvania.2.2015.1080p.3D.BluRay.Half-OU.x264.DTS-HD.MA.5.1-RARBG.mkv.part02.rar
http://uploaded.net/file/6w3ifhxv/Hotel.Transylvania.2.2015.1080p.3D.BluRay.Half-OU.x264.DTS-HD.MA.5.1-RARBG.mkv.part01.rar
http://uploaded.net/file/inl4ichj/Hotel.Transylvania.2.2015.1080p.3D.BluRay.Half-OU.x264.DTS-HD.MA.5.1-RARBG.mkv.part07.rar
http://uploaded.net/file/3ycz47nj/Hotel.Transylvania.2.2015.1080p.3D.BluRay.Half-OU.x264.DTS-HD.MA.5.1-RARBG.mkv.part06.rar
http://uploaded.net/file/5ksbxlff/Hotel.Transylvania.2.2015.1080p.3D.BluRay.Half-OU.x264.DTS-HD.MA.5.1-RARBG.mkv.part10.rar
http://uploaded.net/file/9j60o2qd/Hotel.Transylvania.2.2015.1080p.3D.BluRay.Half-OU.x264.DTS-HD.MA.5.1-RARBG.mkv.part05.rar
http://uploaded.net/file/ixeyqlve/Hotel.Transylvania.2.2015.1080p.3D.BluRay.Half-OU.x264.DTS-HD.MA.5.1-RARBG.mkv.part14.rar
http://uploaded.net/file/mz1r2ozv/Hotel.Transylvania.2.2015.1080p.3D.BluRay.Half-OU.x264.DTS-HD.MA.5.1-RARBG.mkv.part12.rar
http://uploaded.net/file/qht76oub/Hotel.Transylvania.2.2015.1080p.3D.BluRay.Half-OU.x264.DTS-HD.MA.5.1-RARBG.mkv.part09.rar
http://uploaded.net/file/g6155zx0/Hotel.Transylvania.2.2015.1080p.3D.BluRay.Half-OU.x264.DTS-HD.MA.5.1-RARBG.mkv.part13.rar
http://uploaded.net/file/ge4rq440/Hotel.Transylvania.2.2015.1080p.3D.BluRay.Half-OU.x264.DTS-HD.MA.5.1-RARBG.mkv.part04.rar
http://uploaded.net/file/s1lfoys6/Hotel.Transylvania.2.2015.1080p.3D.BluRay.Half-OU.x264.DTS-HD.MA.5.1-RARBG.mkv.part15.rar

 
Top