Šta je novo?
SerbianForum

Dobrodošli na SerbianForum.org, mjesto na kojem možete pronaći apsolutno sve, mjesto druženja i odlične zabave!

Hotel Mumbai (2018)

  • Začetnik teme maja_jevtic
  • Datum pokretanja
maja_jevtic

maja_jevtic

UREDNIK
Hotel Mumbai (2018)













Hotel Mumbai (2018)
Naslov: Hotel Mumbaj
Godina: 2018
Žanr: drama, povijesni, kriminalistički, triler
Trajanje: 123 min
Režija: Anthony Maras
Scenarij: John Collee, Anthony Maras

Glavne uloge:
Jason Isaacs > Vasili
Rodney Afif > Maitre D
Nagesh Bhonsle > Officer D.C.Vam
Anupam Kher > Hemant Oberoi
Alex Pinder > Butler Jamon
Kapil Kumar Netra > Ajmal
Angus McLaren > Eddie
Vipin Sharma > Dilip
Nazanin Boniadi > Zahra
Ansuya Nathan > Manisha
Armie Hammer > David
Dev Patel > Arjun
Sachin Joab > Vijay Goswami
Adithi Kalkunte > Dimple
Amriptal Singh > Ismail
Tilda Cobham-Hervey > Sally
Zenia Starr > Prahba
Divya Unny > Receptionist
Natasha Liu Bordizzo > Bree
Suhail Nayyar > Abdullah
Dinesh Kumar > Rashid
Amandeep Singh > Imran
Manoj Mehra > Houssam

Opis:
Zasnovan na istinitoj priči o terorističkom napadu na Taj Mahal Palace Hotel u Mumbaju 2008, film je sastavljen iz nekoliko priča...























Hidden content
You need to react to this post in order to see this content.



hvala kolegi bits-u na preporuci filma,Maja i Baki​
 
Poslednja izmena:
Wolf 13

Wolf 13

MODERATOR
Hotel Mumbai (2018) 720p BRrip DD5.1 x264 by Wolf
(MKV)



Kod:
 https://www.imdb.com/title/tt5461944/
General
Unique ID : 853195523056500574607379807340116757 (0xA451C97B7D60828FB748298EF8BB15)
Complete name : Hotel Mumbai (2018) 720p BRrip DD5.1 x264 by Wolf.mkv
Format : Matroska
Format version : Version 4
File size : 1.50 GiB
Duration : 2 h 2 min
Overall bit rate : 1 753 kb/s
Encoded date : UTC 2019-06-15 12:57:31
Writing application : mkvmerge v34.0.0 ('Sight and Seen') 64-bit
Writing library : libebml v1.3.7 + libmatroska v1.5.0

Video
ID : 1
Format : AVC
Format/Info : Advanced Video Codec
Format profile : High@L5.1
Format settings : CABAC / 8 Ref Frames
Format settings, CABAC : Yes
Format settings, ReFrames : 8 frames
Codec ID : V_MPEG4/ISO/AVC
Duration : 2 h 2 min
Bit rate : 1 500 kb/s
Width : 1 266 pixels
Height : 536 pixels
Display aspect ratio : 2.35:1
Frame rate mode : Constant
Frame rate : 23.976 (24000/1001) FPS
Color space : YUV
Chroma subsampling : 4:2:0
Bit depth : 8 bits
Scan type : Progressive
Bits/(Pixel*Frame) : 0.092
Stream size : 1.28 GiB (85%)
Title : Hotel Mumbai (2018)
Writing library : x264 core 157 r2935 545de2f
Encoding settings : cabac=1 / ref=8 / deblock=1:-1:-1 / analyse=0x3:0x133 / me=umh / subme=9 / psy=1 / psy_rd=1.00:0.15 / mixed_ref=1 / me_range=16 / chroma_me=1 / trellis=2 / 8x8dct=1 / cqm=0 / deadzone=21,11 / fast_pskip=1 / chroma_qp_offset=-3 / threads=6 / lookahead_threads=1 / sliced_threads=0 / nr=0 / decimate=1 / interlaced=0 / bluray_compat=0 / constrained_intra=0 / bframes=3 / b_pyramid=2 / b_adapt=2 / b_bias=0 / direct=3 / weightb=1 / open_gop=0 / weightp=2 / keyint=240 / keyint_min=24 / scenecut=40 / intra_refresh=0 / rc_lookahead=60 / rc=2pass / mbtree=1 / bitrate=1500 / ratetol=1.0 / qcomp=0.60 / qpmin=0 / qpmax=69 / qpstep=4 / cplxblur=20.0 / qblur=0.5 / vbv_maxrate=300000 / vbv_bufsize=300000 / nal_hrd=none / filler=0 / ip_ratio=1.40 / aq=1:1.00
Language : English
Default : Yes
Forced : No
Color range : Limited
Color primaries : BT.709
Transfer characteristics : BT.709
Matrix coefficients : BT.709

Audio
ID : 2
Format : E-AC-3
Format/Info : Enhanced AC-3
Commercial name : Dolby Digital Plus
Codec ID : A_EAC3
Duration : 2 h 2 min
Bit rate mode : Constant
Bit rate : 256 kb/s
Channel(s) : 6 channels
Channel layout : L R C LFE Ls Rs
Sampling rate : 48.0 kHz
Frame rate : 31.250 FPS (1536 SPF)
Compression mode : Lossy
Delay relative to video : -5 ms
Stream size : 225 MiB (15%)
Title : Hotel Mumbai (2018)
Language : English
Service kind : Complete Main
Default : Yes
Forced : No

Text
ID : 3
Format : UTF-8
Codec ID : S_TEXT/UTF8
Codec ID/Info : UTF-8 Plain Text
Duration : 1 h 53 min
Bit rate : 43 b/s
Count of elements : 960
Stream size : 36.5 KiB (0%)
Title : HOTEL MUMBAI
Language : Serbian
Default : Yes
Forced : No

Hidden content
You need to react to this post in order to see this content.

 
Top