Šta je novo?

Horrid Henry Goes To The Movies (2011)

Član
Učlanjen(a)
29.05.2010
Poruka
1.100
Horrid Henry Goes To The Movies 2011 DVDRip XViD-DTRG

110830042349164169.jpg


An outing to the movies with Pimply Paul, Prissy Polly and Vomiting Vera is never going to be simple!

Kod:
http://www.amazon.co.uk/Horrid-Henry-Goes-Movies-DVD/dp/B004MP8M22

Genre: Anime | Kids
IMDB rating: N/A
Directed by: Nick Moore
Starring: N/A

Video
ID : 0
Format : MPEG-4 Visual
Format profile : Advanced Simple@L5
Format settings, BVOP : 2
Format settings, QPel : No
Format settings, GMC : No warppoints
Format settings, Matrix : Default (H.263)
Muxing mode : Packed bitstream
Codec ID : XVID
Codec ID/Hint : XviD
Duration : 1h 9mn
Bit rate : 1 626 Kbps
Width : 608 pixels
Height : 336 pixels
Display aspect ratio : 16:9
Frame rate : 25.000 fps
Color space : YUV
Chroma subsampling : 4:2:0
Bit depth : 8 bits
Scan type : Progressive
Compression mode : Lossy
Bits/(Pixel*Frame) : 0.318
Stream size : 806 MiB (88%)
Writing library : XviD 64

Audio
ID : 1
Format : AC-3
Format/Info : Audio Coding 3
Mode extension : CM (complete main)
Codec ID : 2000
Duration : 1h 9mn
Bit rate mode : Constant
Bit rate : 224 Kbps
Channel(s) : 2 channels
Channel positions : Front: L R
Sampling rate : 48.0 KHz
Bit depth : 16 bits
Compression mode : Lossy
Stream size : 111 MiB (12%)
Alignment : Aligned on interleaves
Interleave, duration : 481 ms (12.02 video frames)
Interleave, preload duration : 960 ms

Kod:
http://www.fileserve.com/file/WTUw4wM/Horrid_Henry_Goes_To_The_Movies_2011_DVDRip_XViD_DTRG.avi

Kod:
http://www.filesonic.com/file/1808016314/Horrid_Henry_Goes_To_The_Movies_2011_DVDRip_XViD_DTRG.avi

No password
 
Top