Šta je novo?
SerbianForum

Dobrodošli na SerbianForum.org, mjesto na kojem možete pronaći apsolutno sve, mjesto druženja i odlične zabave!

Hardcore Comedy (2013)

  • Začetnik teme croangel
  • Datum pokretanja
C

croangel

Hardcore Comedy (2013) 720p BluRay - EPiK





Movie: Hardcore Comedy
AKA: 重口味 / Zhong Kou Wei
Genres: Comedy, Romance, Category III
Country: Hong Kong | China
Language: Chinese (Cantonese / Mandarin [Dual Audio])

Subtitles: English (softsubbed)

Chinese [simplified / traditional] (softsubbed)

Plot/Synopsis:

3 stories, 3 surprises, magical love, crazy jokes, sexy hot stuff, car stunts, gangsters fights, all in one...

Story 1

Shocking Wet Dreams – directed by Henri Wong (the CGI supervisor on Wilson Yip’s Ip Man movies) and produced by Derek Kwok (Gallants, Journey to the West,) this is a super-stylized short about a geek who winds up renting a room in a rundown, one-woman brothel because he can’t afford housing at university. As a way to repay his debt, he designs a computer program that manages her business more efficiently, but it may not matter because the cops are closing in. Otaku madness, it’s like a dirty superhero movie crammed with colorful special effects.

Story 2

Run on Drugs – directed by one of Hong Kong’s most successful music video directors, Chong Siu-Wing, this segment celebrates Dada Chan, the star of Vulgaria as an ecstasy-gulping party girl. It’s all about a guy who runs up debt and the boutique that he and his girlfriend opened. When it goes out of business he takes a job delivering drugs all over Hong Kong for a dealer, and over the course of one long night he and Dada take mushrooms and run from the cops.

Story 3

Can’t Stop the Killing – this segment is all about a sashimi chef who is good with the women, but not so much with the horses. After running up an enormous gambling debt he’s given a choice by his bookie: pay the debt or kill someone. Without enough cash, the chef takes on the job of triad hitman but before he knocks off his target he decides to make peace with all the people from his past, including his father and the girl in high school he was infatuated with.

Media Info:
General
=======
Complete name : Hardcore.Comedy.2013.mHD.BluRay.DD5.1.x264-EPiK.mkv
Format : Matroska
Format version : Version 4 / Version 2
File size : 2.30 GiB
Duration : 1h 32mn
Overall bit rate : 3 549 Kbps

Video
=====
ID : 1
Format : AVC
Format/Info : Advanced Video Codec
Format profile : High@L4.1
Format settings, CABAC : Yes
Format settings, ReFrames : 9 frames
Codec ID : V_MPEG4/ISO/AVC
Duration : 1h 32mn
Bit rate : 2 391 Kbps
Width : 1 280 pixels
Height : 534 pixels
Display aspect ratio : 2.40:1
Frame rate mode : Constant
Frame rate : 24.000 fps
Color space : YUV
Chroma subsampling : 4:2:0
Bit depth : 8 bits
Scan type : Progressive
Bits/(Pixel*Frame) : 0.146
Stream size : 1.55 GiB (67%)
Title : Hardcore.Comedy.2013.mHD.BluRay.DD5.1.x264-EPiK.nfo
Writing library : x264 core 138 r2358 9e941d1
Encoding settings : cabac=1 / ref=9 / deblock=1:-3:-3 / analyse=0x3:0x113 / me=umh / subme=10 / psy=1 / psy_rd=0.80:0.00 / mixed_ref=1 / me_range=16 / chroma_me=1 / trellis=2 / 8x8dct=1 / cqm=0 / deadzone=21,11 / fast_pskip=0 / chroma_qp_offset=-2 / threads=6 / lookahead_threads=1 / sliced_threads=0 / nr=0 / decimate=0 / interlaced=0 / bluray_compat=0 / constrained_intra=0 / bframes=3 / b_pyramid=2 / b_adapt=2 / b_bias=0 / direct=3 / weightb=1 / open_gop=0 / weightp=2 / keyint=250 / keyint_min=24 / scenecut=40 / intra_refresh=0 / rc_lookahead=40 / rc=crf / mbtree=1 / crf=18.0 / qcomp=0.60 / qpmin=0 / qpmax=69 / qpstep=4 / ip_ratio=1.40 / aq=1:0.80
Language : English
Default : Yes
Forced : No
Matrix coefficients : BT.709

Audio #1
========
ID : 2
Format : AC-3
Format/Info : Audio Coding 3
Mode extension : CM (complete main)
Format settings, Endianness : Big
Codec ID : A_AC3
Duration : 1h 32mn
Bit rate mode : Constant
Bit rate : 448 Kbps
Channel(s) : 6 channels
Channel positions : Front: L C R, Side: L R, LFE
Sampling rate : 48.0 KHz
Bit depth : 16 bits
Compression mode : Lossy
Stream size : 297 MiB (13%)
Title : DTS, Chinese, 5.1 channels, 448kbps, 48kHz Cantonese
Language : Chinese
Default : Yes
Forced : Yes

Audio #2
========
ID : 3
Format : AC-3
Format/Info : Audio Coding 3
Mode extension : CM (complete main)
Format settings, Endianness : Big
Codec ID : A_AC3
Duration : 1h 32mn
Bit rate mode : Constant
Bit rate : 640 Kbps
Channel(s) : 6 channels
Channel positions : Front: L C R, Side: L R, LFE
Sampling rate : 48.0 KHz
Bit depth : 16 bits
Compression mode : Lossy
Stream size : 425 MiB (18%)
Title : AC3, Chinese, 5.1 channels, 640kbps, 48kHz Mandarin
Language : Chinese
Default : No
Forced : No

Menu
====
00:00:00.000 : en:00:00:00.000
00:09:07.333 : en:00:09:07.333
00:14:06.333 : en:00:14:06.333
00:24:41.042 : en:00:24:41.042
00:31:29.167 : en:00:31:29.167
00:37:51.917 : en:00:37:51.917
00:43:06.208 : en:00:43:06.208
00:50:04.875 : en:00:50:04.875
00:57:23.792 : en:00:57:23.792
01:05:29.833 : en:01:05:29.833
01:13:59.625 : en:01:13:59.625
01:24:00.125 : en:01:24:00.125
Kod:
http://uploaded.net/file/290zu2n6/HCome2013.part5.rar
http://uploaded.net/file/toy5gjyg/HCome2013.part4.rar
http://uploaded.net/file/kty6ox06/HCome2013.part1.rar
http://uploaded.net/file/ob1pg21z/HCome2013.part2.rar
http://uploaded.net/file/4l31mh50/HCome2013.part3.rar
 
Top