Šta je novo?
SerbianForum

Dobrodošli na SerbianForum.org, mjesto na kojem možete pronaći apsolutno sve, mjesto druženja i odlične zabave!

Hannibal Rising (2007)

  • Začetnik teme CyberWarez
  • Datum pokretanja
CyberWarez

CyberWarez

Član

************************************************************
Hannibal Rising (2007) UNCUT 1080p BluRay x264 AC3 SiMPLE
File Size: 10.1 GiB
************************************************************




INFO:
Kod:
General
Complete name                            : Hannibal.Rising.2007.UNCUT.1080p.BluRay.x264.AC3.SiMPLE.mkv
Format                                   : Matroska
Format version                           : Version 4 / Version 2
File size                                : 10.1 GiB
Duration                                 : 2h 10mn
Overall bit rate                         : 11.0 Mbps
Encoded date                             : UTC 2014-12-09 15:24:34
Writing application                      : mkvmerge v7.3.0 ('Nouages') 64bit built on Oct 22 2014 18:53:34
Writing library                          : libebml v1.3.0 + libmatroska v1.4.1

Video
ID                                       : 1
Format                                   : AVC
Format/Info                              : Advanced Video Codec
Format profile                           : High@L4.1
Format settings, CABAC                   : Yes
Format settings, ReFrames                : 5 frames
Codec ID                                 : V_MPEG4/ISO/AVC
Duration                                 : 2h 10mn
Bit rate                                 : 10.4 Mbps
Width                                    : 1 918 pixels
Height                                   : 820 pixels
Display aspect ratio                     : 2.35:1
Frame rate mode                          : Constant
Frame rate                               : 23.976 fps
Color space                              : YUV
Chroma subsampling                       : 4:2:0
Bit depth                                : 8 bits
Scan type                                : Progressive
Bits/(Pixel*Frame)                       : 0.275
Stream size                              : 9.45 GiB (94%)
Title                                    : Hannibal.Rising.2007.UNCUT.1080p.BluRay.x264.AC3.SiMPLE
Writing library                          : x264 core 142 r2491 24e4fed
Language                                 : English
Default                                  : Yes
Forced                                   : No

Audio
ID                                       : 2
Format                                   : AC-3
Format/Info                              : Audio Coding 3
Mode extension                           : CM (complete main)
Format settings, Endianness              : Big
Codec ID                                 : A_AC3
Duration                                 : 2h 10mn
Bit rate mode                            : Constant
Bit rate                                 : 448 Kbps
Channel(s)                               : 6 channels
Channel positions                        : Front: L C R, Side: L R, LFE
Sampling rate                            : 48.0 KHz
Bit depth                                : 16 bits
Compression mode                         : Lossy
Stream size                              : 419 MiB (4%)
Title                                    : Hannibal.Rising.2007.UNCUT.1080p.BluRay.x264.AC3.SiMPLE
Language                                 : English
Default                                  : Yes
Forced                                   : No
iMDB:
Kod:
http://www.imdb.com/title/tt0367959/







Single Extraction | No Password | Interchangeable Links: | Working 100% |

Kod:
http://uploaded.net/file/u6guvyvr/HR2007.UNCUT.1080.SiMPLE.part1.rar
http://uploaded.net/file/2r9h1dcs/HR2007.UNCUT.1080.SiMPLE.part2.rar
http://uploaded.net/file/wm6ehp2t/HR2007.UNCUT.1080.SiMPLE.part3.rar
http://uploaded.net/file/r7ogk5n7/HR2007.UNCUT.1080.SiMPLE.part4.rar
http://uploaded.net/file/njolsoiq/HR2007.UNCUT.1080.SiMPLE.part5.rar
http://uploaded.net/file/pqdlw5nb/HR2007.UNCUT.1080.SiMPLE.part6.rar
http://uploaded.net/file/jt93eq04/HR2007.UNCUT.1080.SiMPLE.part7.rar

http://rapidgator.net/file/a35d86fdaab82e2fabf015bdacf86fd6/HR2007.UNCUT.1080.SiMPLE.part1.rar.html
http://rapidgator.net/file/16423f4866f9118c847092f46df4b5de/HR2007.UNCUT.1080.SiMPLE.part2.rar.html
http://rapidgator.net/file/e9e6e8f2c309e50b34537eb43575141c/HR2007.UNCUT.1080.SiMPLE.part3.rar.html
http://rapidgator.net/file/3fb05d4a352a4c0e27553eff1c0c1fb5/HR2007.UNCUT.1080.SiMPLE.part4.rar.html
http://rapidgator.net/file/4fc7ddbd55d4fce5d7162f50f36b813a/HR2007.UNCUT.1080.SiMPLE.part5.rar.html
http://rapidgator.net/file/f43a5a9cf349ba6c5d1531f1e91d0794/HR2007.UNCUT.1080.SiMPLE.part6.rar.html
http://rapidgator.net/file/9e4d5916e8e3aa69d7389064d3e724ed/HR2007.UNCUT.1080.SiMPLE.part7.rar.html

http://k2s.cc/file/a0446897e1024/HR2007.UNCUT.1080.SiMPLE.part1.rar
http://k2s.cc/file/bb9612c4dc928/HR2007.UNCUT.1080.SiMPLE.part2.rar
http://k2s.cc/file/591e321ad0b9e/HR2007.UNCUT.1080.SiMPLE.part3.rar
http://k2s.cc/file/c519e39069650/HR2007.UNCUT.1080.SiMPLE.part4.rar
http://k2s.cc/file/7234e4c574a97/HR2007.UNCUT.1080.SiMPLE.part5.rar
http://k2s.cc/file/5ab73960d875d/HR2007.UNCUT.1080.SiMPLE.part6.rar
http://k2s.cc/file/8cc2a9ddbea91/HR2007.UNCUT.1080.SiMPLE.part7.rar

:!: PLEASE SEE BEFORE DOWNLOADING

:arrow: Backups Ready. Reply Here When links Dead, I will re-up A.S.A.P
:arrow: Links Are Interchangeable
:arrow: I used to upload on different 4 file host for you
:arrow: No compromise about quality which u get here

DON'T FORGET TO SAY THANKS IF YOU LIKE MY POST !
 
Top