Šta je novo?
Član
Učlanjen(a)
07.06.2010
Poruka
469
Hamilton (2006) DVDRip XviD-NOSCREENS

djuXQ.jpg


Kod:
http://www.imdb.com/title/tt0808289/

Video
ID : 0
Format : MPEG-4 Visual
Format profile : Advanced [email protected]
Format settings, BVOP : 2
Format settings, QPel : No
Format settings, GMC : No warppoints
Format settings, Matrix : Default (H.263)
Codec ID : XVID
Codec ID/Hint : XviD
Duration : 1h 3mn
Bit rate : 1 371 Kbps
Width : 640 pixels
Height : 352 pixels
Display aspect ratio : 16:9
Frame rate : 23.976 fps
Color space : YUV
Chroma subsampling : 4:2:0
Bit depth : 8 bits
Scan type : Progressive
Compression mode : Lossy
Bits/(Pixel*Frame) : 0.254
Stream size : 628 MiB (90%)
Writing library : XviD 1.3.0.dev55

Audio
ID : 1
Format : MPEG Audio
Format version : Version 1
Format profile : Layer 3
Mode : Joint stereo
Codec ID : 55
Codec ID/Hint : MP3
Duration : 1h 3mn
Bit rate mode : Variable
Bit rate : 145 Kbps
Minimum bit rate : 32.0 Kbps
Channel(s) : 2 channels
Sampling rate : 48.0 KHz
Compression mode : Lossy
Stream size : 66.2 MiB (9%)
Alignment : Aligned on interleaves
Interleave, duration : 24 ms (0.58 video frame)
Interleave, preload duration : 153 ms
Writing library : LAME3.99r

5wJpK.png

DdAIM.jpg


xNZXm.png

Kod:
http://extabit.com/file/2du0utlneluyt/noscreens-h06.dvd__amicica.part1.rar
http://extabit.com/file/2du0utlneluzp/noscreens-h06.dvd__amicica.part2.rar
http://extabit.com/file/2du0utlncpk9h/noscreens-h06.dvd__amicica.part3.rar
http://extabit.com/file/2du0utlneluz9/noscreens-h06.dvd__amicica.part4.rar

http://uploaded.net/file/vatggdk0/noscreens-h06.dvd__amicica.part1.rar
http://uploaded.net/file/ge42m4z1/noscreens-h06.dvd__amicica.part2.rar
http://uploaded.net/file/308noolj/noscreens-h06.dvd__amicica.part3.rar
http://uploaded.net/file/fkkdw6yt/noscreens-h06.dvd__amicica.part4.rar
 
Top