Šta je novo?
Član
Učlanjen(a)
14.12.2009
Poruka
489
Half Moon (2010)
Dvd Rip-xvid


rvwifyuja2.jpg






Kod:
http://www.imdb.com/title/tt1713452/

Format                           : AVI 
Format/Info                      : Audio Video Interleave 
File size                        : 961 MiB 
Duration                         : 1h 20mn 
Overall bit rate                 : 1 673 Kbps 

Video 
ID                               : 0 
Format                           : AVC 
Format/Info                      : Advanced Video Codec 
Format profile                   : [email protected] 
Format settings, CABAC           : Yes 
Format settings, ReFrames        : 2 frames 
Codec ID                         : H264 
Duration                         : 1h 20mn 
Bit rate                         : 1 500 Kbps 
Width                            : 720 pixels 
Height                           : 480 pixels 
Display aspect ratio             : 4:3 
Frame rate                       : 23.976 fps 
Standard                         : NTSC 
Resolution                       : 8 bits 
Colorimetry                      : 4:2:0 
Scan type                        : Progressive 
Bits/(Pixel*Frame)               : 0.181 
Stream size                      : 862 MiB (90%) 
Writing library                  : x264 core 65 r1028M 83baa7f 


Audio 
ID                               : 1 
Format                           : MPEG Audio 
Format version                   : Version 1 
Format profile                   : Layer 3 
Mode                             : Joint stereo 
Format_Settings_ModeExtension    : MS Stereo 
Codec ID                         : 55 
Codec ID/Hint                    : MP3 
Duration                         : 1h 20mn 
Bit rate mode                    : Constant 
Bit rate                         : 160 Kbps 
Channel(s)                       : 2 channels 
Sampling rate                    : 48.0 KHz 
Stream size                      : 91.9 MiB (10%) 
Alignment                        : Split accross interleaves 
Interleave, duration             : 24 ms (0.58 video frame) 
Interleave, preload duration     : 764 ms 
Writing library                  : LAME3.98


g6mvomcc5s.jpg


vtw6bsar5k.jpg




:down:
Kod:
http://www.filefactory.com/file/ca3debc/n/Half.BalkanDownload.org.avi
 
Član
Učlanjen(a)
02.05.2010
Poruka
49
Half Moon (2010) DVDRip XviD


coverlz.png



rvwifyuja233v5alvjx.jpg



imdbk.png


Kod:
http://www.imdb.com/title/tt1713452/

plott.png


Kod:
Half Moon tells the story of a city gripped with fear because of a  man killing prostitutes. When down on her luck prostitute Rose (Shellie  Chapman aka Tori Black) goes to a hotel to meet a man who seems like  the perfect guy things soon change and she suspects he could be the  killer …or worse a Werewolf!


nfol.png



Kod:
Genre: Horror | Director: Jason Toler |
Starring: Tori Black, Marek Matousek and Torey D. Sutton
Language: English | Size: 961 MB |

screensht.png


vtw6bsar5kc0my9jo.jpg


647pd3ivf7ivbyey6k7h.jpg


DL.png


Kod:
http://www.filefactory.com/file/cb1eb73/n/[email protected]_SlatkoCose.org.avi
 
Top