Šta je novo?
Član
Učlanjen(a)
09.05.2011
Poruka
7.549
Gypsy Blood (2012) DVDRip Xvid AC3-BHRG
File Size: 1,12 GiB


gypsy.jpg


File size : 1.11 GiB
Duration : 1h 11mn
Overall bit rate : 2 205 Kbps

Video
ID : 0
Format : MPEG-4 Visual
Format profile : Advanced [email protected]
Format settings, BVOP : 2
Format settings, QPel : No
Format settings, GMC : No warppoints
Format settings, Matrix : Default (H.263)
Codec ID : XVID
Codec ID/Hint : XviD
Duration : 1h 11mn
Bit rate : 1 749 Kbps
Width : 720 pixels
Height : 400 pixels
Display aspect ratio : 16:9
Frame rate : 25.000 fps
Color space : YUV
Chroma subsampling : 4:2:0
Bit depth : 8 bits
Scan type : Progressive
Compression mode : Lossy
Bits/(Pixel*Frame) : 0.243
Stream size : 900 MiB (79%)
Writing library : XviD 1.2.1 (UTC 2008-12-04)

Audio
ID : 1
Format : AC-3
Format/Info : Audio Coding 3
Mode extension : CM (complete main)
Format settings, Endianness : Big
Codec ID : 2000
Duration : 1h 11mn
Bit rate mode : Constant
Bit rate : 448 Kbps
Channel(s) : 2 channels
Channel positions : Front: L R
Sampling rate : 48.0 KHz
Bit depth : 16 bits
Compression mode : Lossy
Stream size : 231 MiB (20%)
Alignment : Aligned on interleaves
Interleave, duration : 64 ms (1.60 video frames)
Interleave, preload duration : 192 ms
Title : VTS_01_1 T80 2_0ch 192Kbps DELAY 0ms_new

Plot
The legacy of violence handed down through generations of gypsy fathers to their sons.

Kod:
http://www.imdb.com/title/tt2127279/

g1.png


g2.png


g3.png



DOWNLOAD:
Kod:
http://netload.in/dateiblINFAjeMT/Gypsy.BlOOd.DVDRip.part1.rar.htm
http://netload.in/dateiOfi6rjU4Rg/Gypsy.BlOOd.DVDRip.part2.rar.htm
http://netload.in/dateiQzP7TrxtSk/Gypsy.BlOOd.DVDRip.part3.rar.htm

http://rapidgator.net/file/70362877/Gypsy.BlOOd.DVDRip.part1.rar.html
http://rapidgator.net/file/70362873/Gypsy.BlOOd.DVDRip.part2.rar.html
http://rapidgator.net/file/70362863/Gypsy.BlOOd.DVDRip.part3.rar.html

http://uploaded.net/file/pw2lgk1t/Gypsy.BlOOd.DVDRip.part1.rar
http://uploaded.net/file/lg3tmalq/Gypsy.BlOOd.DVDRip.part2.rar
http://uploaded.net/file/jscw7ucx/Gypsy.BlOOd.DVDRip.part3.rar

http://ryushare.com/304b4ea71a3b/Gypsy.BlOOd.DVDRip.part1.rar
http://ryushare.com/2f627a020940/Gypsy.BlOOd.DVDRip.part2.rar
http://ryushare.com/2f627a020943/Gypsy.BlOOd.DVDRip.part3.rar
 
Top