Šta je novo?

Gutshot Straight (2014)

Član
Učlanjen(a)
09.05.2011
Poruka
7.549
************************************************************
Gutshot Straight (2014) HDRip XviD AC3 EVO
File Size: 1.36 GiB

************************************************************

ghost.jpg


INFO:
Kod:
General
Complete name                            : M:\G.S.2014-EVO.avi
Format                                   : AVI
Format/Info                              : Audio Video Interleave
File size                                : 1.36 GiB
Duration                                 : 1h 28mn
Overall bit rate                         : 2 184 Kbps
Writing library                          : VirtualDub build 32593/release

Video
ID                                       : 0
Format                                   : MPEG-4 Visual
Format profile                           : Advanced [email protected]
Format settings, BVOP                    : 2
Format settings, QPel                    : No
Format settings, GMC                     : No warppoints
Format settings, Matrix                  : Default (H.263)
Muxing mode                              : Packed bitstream
Codec ID                                 : XVID
Codec ID/Hint                            : XviD
Duration                                 : 1h 28mn
Bit rate                                 : 1 791 Kbps
Width                                    : 720 pixels
Height                                   : 304 pixels
Display aspect ratio                     : 2.35:1
Frame rate                               : 23.976 fps
Color space                              : YUV
Chroma subsampling                       : 4:2:0
Bit depth                                : 8 bits
Scan type                                : Progressive
Compression mode                         : Lossy
Bits/(Pixel*Frame)                       : 0.341
Stream size                              : 1.11 GiB (82%)
Writing library                          : XviD 64

Audio
ID                                       : 1
Format                                   : AC-3
Format/Info                              : Audio Coding 3
Mode extension                           : CM (complete main)
Format settings, Endianness              : Big
Codec ID                                 : 2000
Duration                                 : 1h 28mn
Bit rate mode                            : Constant
Bit rate                                 : 384 Kbps
Channel(s)                               : 2 channels
Channel positions                        : Front: L R
Sampling rate                            : 48.0 KHz
Bit depth                                : 16 bits
Compression mode                         : Lossy
Stream size                              : 244 MiB (18%)
Alignment                                : Aligned on interleaves
Interleave, duration                     : 42 ms (1.00 video frame)
Interleave, preload duration             : 512 ms

iMDB:
Kod:

gs2014evopreview.png


Single Extraction | No Password | Interchangeable Links: | Working 100% |

Kod:
http://uploaded.net/file/iqymbhfs/GS.2014.EVO.part1.rar
http://uploaded.net/file/wn123ee3/GS.2014.EVO.part2.rar
http://uploaded.net/file/q4hvwkwe/GS.2014.EVO.part3.rar

http://rapidgator.net/file/08dd3c907deb366fcfb73fe2e3071771/GS.2014.EVO.part1.rar.html
http://rapidgator.net/file/813d966dcc052addc9c887942734b661/GS.2014.EVO.part2.rar.html
http://rapidgator.net/file/30fc8f160cb2765c77e3eb73fea0013d/GS.2014.EVO.part3.rar.html

http://k2s.cc/file/333fb0818d761/GS.2014.EVO.part1.rar
http://k2s.cc/file/ce47721c004f7/GS.2014.EVO.part2.rar
http://k2s.cc/file/6b68bb4d67adf/GS.2014.EVO.part3.rar
 
Top