Šta je novo?
Član
Učlanjen(a)
19.04.2009
Poruka
449
Gun (2010) DvdRip Xvid -Noir

gune.jpg

Kod:
http://www.imdb.com/title/tt1560954/
Kod:
Gun.2010.DvdRip.Xvid -Noir (Thanks)

General

Complete name                    : Gun 2010 DvdRip x264-Jucified(300MB).mp4
Format                           : MPEG-4
Format profile                   : Base Media
Codec ID                         : isom
File size                        : 300 MiB
Duration                         : 1h 14mn
Overall bit rate                 : 565 Kbps

Video

Format                           : AVC
Format/Info                      : Advanced Video Codec
Format profile                   : [email protected]
Format settings, CABAC           : Yes
Format settings, ReFrames        : 2 frames
Codec ID                         : avc1
Codec ID/Info                    : Advanced Video Coding
Duration                         : 1h 14mn
Bit rate mode                    : Variable
Bit rate                         : 530 Kbps
Maximum bit rate                 : 2 405 Kbps
Width                            : 672 pixels
Height                           : 368 pixels
Display aspect ratio             : 16/9
Frame rate mode                  : Constant
Frame rate                       : 25.000 fps
Resolution                       : 24 bits
Colorimetry                      : 4:2:0
Scan type                        : Progressive
Bits/(Pixel*Frame)               : 0.086
Stream size                      : 282 MiB (94%)

Audio

Format                           : AAC
Format/Info                      : Advanced Audio Codec
Format version                   : Version 4
Format profile                   : LC
Format settings, SBR             : Yes
Format settings, PS              : No
Codec ID                         : 40
Duration                         : 1h 14mn
Bit rate mode                    : Variable
Bit rate                         : 32.0 Kbps
Maximum bit rate                 : 44.8 Kbps
Channel(s)                       : 2 channels
Channel positions                : L R
Sampling rate                    : 44.1 KHz
Resolution                       : 16 bits
Stream size                      : 17.0 MiB (6%)
dhosts.png


File Serve
Kod:
http://www.fileserve.com/file/9TkzVAn/Gun.2010.DvdRip.Xvid-Noir.part1.rar
http://www.fileserve.com/file/ucBmEVn/Gun.2010.DvdRip.Xvid-Noir.part2.rar
Password
Kod:
no password
 
Top