Šta je novo?
MODERATOR
Učlanjen(a)
10.10.2009
Poruka
13.307
Gun (2010) DVDrip x264

51Ml63XlqML.jpg

Gun 2010 DvdRip x264-Jucified (300MB)

:info:
Gun (2010) - IMDb

:download:

Kod:
http://hotfile.com/dl/88537134/63570de/N.W.D.X.WwW.SceneDowns.Com.part1.rar.html
http://hotfile.com/dl/88536884/5d234e3/N.W.D.X.WwW.SceneDowns.Com.part2.rar.html
Kod:
http://www.fileserve.com/file/7xzKxPS/N.W.D.X.WwW.SceneDowns.Com.part1.rar
http://www.fileserve.com/file/6y4T2wV/N.W.D.X.WwW.SceneDowns.Com.part2.rar
Kod:
http://depositfiles.com/files/uernlvpl6
http://depositfiles.com/files/o483vozh9
Kod:
http://rapidshare.com/files/436123060/N.W.D.X.WwW.SceneDowns.Com.part1.rar
http://rapidshare.com/files/436122354/N.W.D.X.WwW.SceneDowns.Com.part2.rar
Kod:
http://www.megaupload.com/?d=ZG72OFS7
http://www.megaupload.com/?d=ZFIJ3808
 
Član
Učlanjen(a)
24.04.2010
Poruka
653
Gun (2010) DvdRip Xvid -Noir

ns5drtuab32o90hgf6pw.jpg


Kod:
http://www.imdb.com/title/tt1560954/

Release Group: Noir
Release Name: Gun 2010 DvdRip Xvid -Noir
Release Date: 10-12-2010
Filename: Gun 2010 DvdRip Xvid -Noir
Source: DVDRip
Size: 702 MB
Genre: Action
Video: 672 x 368 | 25.00 fps
Audio: English | DTS | 113 Kbps
Subtitles: N/A
Runtime: 1h 18mn
Directed By: Jessy Terrero
Starring: 50 Cent, Malik Barnhardt,Paul Calderon

a6y6hu5qeq9fd0d8q7pw.png

polq0jlgkqmx3r8jjti.png

jal88v5xwgs8xo516v.png


INTERCHANGEABLE LINKS

Kod:
http://www.fileserve.com/file/nVQHCtj
http://www.fileserve.com/file/Abu85kb

http://hotfile.com/dl/88631561/41f484d/Gun.2010.DvdRip.Xvid-Noir.avi.part1.rar.html
http://hotfile.com/dl/88631315/9345e1e/Gun.2010.DvdRip.Xvid-Noir.avi.part2.rar.html

http://www.filesonic.com/file/41134853/Gun.2010.DvdRip.Xvid-Noir.avi.part1.rar
http://www.filesonic.com/file/41135861/Gun.2010.DvdRip.Xvid-Noir.avi.part2.rar
 
MODERATOR
Učlanjen(a)
10.10.2009
Poruka
13.307
Gun (2010) DVDrip AC3 XviD

51Ml63XlqML.jpg

Gun 2010 DVDRip XviD AC3-FLAWL3SS

:info:
Gun (2010) - IMDb

:download:

Kod:
http://hotfile.com/dl/88627984/58a706e/SceneDowns.CoM.Gun.2010.DVDRip.XviD.AC3-FLAWL3SS.part1.rar.html
http://hotfile.com/dl/88628008/d4ac946/SceneDowns.CoM.Gun.2010.DVDRip.XviD.AC3-FLAWL3SS.part2.rar.html
http://hotfile.com/dl/88627900/df53232/SceneDowns.CoM.Gun.2010.DVDRip.XviD.AC3-FLAWL3SS.part3.rar.html
http://hotfile.com/dl/88627002/4c2ec38/SceneDowns.CoM.Gun.2010.DVDRip.XviD.AC3-FLAWL3SS.part4.rar.html
Kod:
http://www.fileserve.com/file/6p37eef/SceneDowns.CoM.Gun.2010.DVDRip.XviD.AC3-FLAWL3SS.part1.rar
http://www.fileserve.com/file/jEGtkjv/SceneDowns.CoM.Gun.2010.DVDRip.XviD.AC3-FLAWL3SS.part2.rar
http://www.fileserve.com/file/t4AeV2B/SceneDowns.CoM.Gun.2010.DVDRip.XviD.AC3-FLAWL3SS.part3.rar
http://www.fileserve.com/file/8F5RRYZ/SceneDowns.CoM.Gun.2010.DVDRip.XviD.AC3-FLAWL3SS.part4.rar
Kod:
http://depositfiles.com/files/6880ufjuj
http://depositfiles.com/files/kk1jtakf3
http://depositfiles.com/files/r3zw5b4og
http://depositfiles.com/files/waho2u3q2
Kod:
http://rapidshare.com/files/436208838/SceneDowns.CoM.Gun.2010.DVDRip.XviD.AC3-FLAWL3SS.part1.rar
http://rapidshare.com/files/436208824/SceneDowns.CoM.Gun.2010.DVDRip.XviD.AC3-FLAWL3SS.part2.rar
http://rapidshare.com/files/436208840/SceneDowns.CoM.Gun.2010.DVDRip.XviD.AC3-FLAWL3SS.part3.rar
http://rapidshare.com/files/436208751/SceneDowns.CoM.Gun.2010.DVDRip.XviD.AC3-FLAWL3SS.part4.rar
Kod:
http://www.megaupload.com/?d=1KEYVDSN
http://www.megaupload.com/?d=2DSAU3SQ
http://www.megaupload.com/?d=HEMNY1QE
http://www.megaupload.com/?d=QKTEEDJ5
 
Član
Učlanjen(a)
19.04.2009
Poruka
449
Gun (2010) DvdRip Xvid -Noir

gune.jpg

Kod:
http://www.imdb.com/title/tt1560954/
Kod:
Gun.2010.DvdRip.Xvid -Noir (Thanks)

General

Complete name                    : Gun 2010 DvdRip x264-Jucified(300MB).mp4
Format                           : MPEG-4
Format profile                   : Base Media
Codec ID                         : isom
File size                        : 300 MiB
Duration                         : 1h 14mn
Overall bit rate                 : 565 Kbps

Video

Format                           : AVC
Format/Info                      : Advanced Video Codec
Format profile                   : [email protected]
Format settings, CABAC           : Yes
Format settings, ReFrames        : 2 frames
Codec ID                         : avc1
Codec ID/Info                    : Advanced Video Coding
Duration                         : 1h 14mn
Bit rate mode                    : Variable
Bit rate                         : 530 Kbps
Maximum bit rate                 : 2 405 Kbps
Width                            : 672 pixels
Height                           : 368 pixels
Display aspect ratio             : 16/9
Frame rate mode                  : Constant
Frame rate                       : 25.000 fps
Resolution                       : 24 bits
Colorimetry                      : 4:2:0
Scan type                        : Progressive
Bits/(Pixel*Frame)               : 0.086
Stream size                      : 282 MiB (94%)

Audio

Format                           : AAC
Format/Info                      : Advanced Audio Codec
Format version                   : Version 4
Format profile                   : LC
Format settings, SBR             : Yes
Format settings, PS              : No
Codec ID                         : 40
Duration                         : 1h 14mn
Bit rate mode                    : Variable
Bit rate                         : 32.0 Kbps
Maximum bit rate                 : 44.8 Kbps
Channel(s)                       : 2 channels
Channel positions                : L R
Sampling rate                    : 44.1 KHz
Resolution                       : 16 bits
Stream size                      : 17.0 MiB (6%)
gunscreen.jpg

hosts.gif


:::.. LINKS | INTERCHANGEABLE ..:::

Hotfile
Kod:
http://hotfile.com/dl/88672847/2e956bc/Gun.2010.DvdRip.Xvid-Noir.part1.rar
http://hotfile.com/dl/88673827/99efe66/Gun.2010.DvdRip.Xvid-Noir.part2.rar

Netload
Kod:
http://netload.in/dateiUy5uhz4dLl/Gun.2010.DvdRip.Xvid-Noir.part1.rar.htm
http://netload.in/dateiDqaMm6nwY0/Gun.2010.DvdRip.Xvid-Noir.part2.rar.htm

File Sonic
Kod:
http://www.filesonic.com/file/41376015/Gun.2010.DvdRip.Xvid-Noir.part1.rar
http://www.filesonic.com/file/41377083/Gun.2010.DvdRip.Xvid-Noir.part2.rar

File Serve
Kod:
http://www.fileserve.com/file/9TkzVAn/Gun.2010.DvdRip.Xvid-Noir.part1.rar
http://www.fileserve.com/file/ucBmEVn/Gun.2010.DvdRip.Xvid-Noir.part2.rar
Password
Kod:
no password
 
Top