Šta je novo?

Guardians Of The Galaxy (2014)

Član
Učlanjen(a)
09.05.2011
Poruka
7.549
************************************************************
Guardians Of The Galaxy (2014) R6 720p HDCAM x264 JYK
File Size: 2.76 GiB

************************************************************

guardians.jpg


INFO:
Kod:
Format.......: Matroska
File Size....: 2.76 GiB
Duration.....: 2h 0mn
Bitrate......: 3 272 Kbps
Subtitles....: None
Encoder".......JYK

Video Format......: AVC
Video Codec.......: x264 core 142 r2431 ac76440 
Bitrate...........: 3 150 Kbps
Frame Rate........: 23.976 fps
Width.............: 1 280 pixels
Height............: 572 pixels
aspect ratio......: 2.25:1

Format..........: AC-3
Bitrate.........: 128 Kbps
Channels........: 2 channels
Sampling Rate...: 48.0 KHz
Language........: English

iMDB:
Kod:
http://www.imdb.com/title/tt2015381/

g1.jpg


g2.jpg


g3.jpg


Single Extraction | No Password | Interchangeable Links: | Working 100% |

Kod:
http://rapidgator.net/file/6f71a6f81f9a057bd61d042270c49e69/GotG14.720p.JYK.part1.rar.html
http://rapidgator.net/file/a22599fc6d28334886ae0ea893195f46/GotG14.720p.JYK.part2.rar.html
http://rapidgator.net/file/db2e5ba3d2aa2fe27d8090ef90021fde/GotG14.720p.JYK.part3.rar.html
http://rapidgator.net/file/f91f13f7daebd81a86616d011afc1cd7/GotG14.720p.JYK.part4.rar.html

http://uploaded.net/file/hqr3ygib/GotG14.720p.JYK.part1.rar
http://uploaded.net/file/namoyxmn/GotG14.720p.JYK.part2.rar
http://uploaded.net/file/8o9g44dv/GotG14.720p.JYK.part3.rar
http://uploaded.net/file/6exk0u0u/GotG14.720p.JYK.part4.rar

http://xerver.co/h4dc0yc5d4ny/GotG14.720p.JYK.part1.rar
http://xerver.co/gy3o8f9vmkfg/GotG14.720p.JYK.part2.rar
http://xerver.co/tia54nvox787/GotG14.720p.JYK.part3.rar
http://xerver.co/74c581wpoo4f/GotG14.720p.JYK.part4.rar

http://k2s.cc/file/0d2c860b78899/GotG14.720p.JYK.part1.rar
http://k2s.cc/file/8cffe25650bfc/GotG14.720p.JYK.part2.rar
http://k2s.cc/file/030935cbfa9f5/GotG14.720p.JYK.part3.rar
http://k2s.cc/file/41803a2661047/GotG14.720p.JYK.part4.rar



:!: PLEASE SEE BEFORE DOWNLOADING

:arrow: Backups Ready. Reply Here When links Dead, I will re-up A.S.A.P
:arrow: Links Are Interchangeable
:arrow: I used to upload on different 4 file host for you
:arrow: No compromise about quality which u get here

DON'T FORGET TO SAY THANKS IF YOU LIKE MY POST !
 
Član
Učlanjen(a)
09.05.2011
Poruka
7.549
************************************************************
Guardians of the Galaxy (2014) DVDRip x264 AC3 PLAYNOW
File Size: 1.72 GiB

************************************************************

galaxy.jpg


INFO:
Kod:
General
Complete name                            : D:\GOTG2014-PLAYNOW.mkv
Format                                   : Matroska
Format version                           : Version 2
File size                                : 1.72 GiB
Duration                                 : 2h 0mn
Overall bit rate                         : 2 032 Kbps
Encoded date                             : UTC 2014-11-10 08:38:24
Writing application                      : mkvmerge v7.0.0 ('Where We Going') 32bit built on Jun  9 2014 15:08:34
Writing library                          : libebml v1.3.0 + libmatroska v1.4.1

Video
ID                                       : 1
Format                                   : AVC
Format/Info                              : Advanced Video Codec
Format profile                           : [email protected]
Format settings, CABAC                   : Yes
Format settings, ReFrames                : 4 frames
Codec ID                                 : V_MPEG4/ISO/AVC
Duration                                 : 2h 0mn
Bit rate                                 : 1 645 Kbps
Width                                    : 720 pixels
Height                                   : 304 pixels
Display aspect ratio                     : 2.35:1
Frame rate mode                          : Constant
Frame rate                               : 23.976 fps
Color space                              : YUV
Chroma subsampling                       : 4:2:0
Bit depth                                : 8 bits
Scan type                                : Progressive
Bits/(Pixel*Frame)                       : 0.313
Stream size                              : 1.36 GiB (79%)
Writing library                          : x264 core 142 r2431 ac76440
Default                                  : Yes
Forced                                   : No

Audio
ID                                       : 2
Format                                   : AC-3
Format/Info                              : Audio Coding 3
Mode extension                           : CM (complete main)
Format settings, Endianness              : Big
Codec ID                                 : A_AC3
Duration                                 : 2h 0mn
Bit rate mode                            : Constant
Bit rate                                 : 384 Kbps
Channel(s)                               : 6 channels
Channel positions                        : Front: L C R, Side: L R, LFE
Sampling rate                            : 48.0 KHz
Bit depth                                : 16 bits
Compression mode                         : Lossy
Stream size                              : 332 MiB (19%)
Language                                 : English
Default                                  : Yes
Forced                                   : No

iMDB:
Kod:
http://www.imdb.com/title/tt2015381/

gotg.jpg


Single Extraction | No Password | Interchangeable Links: | Working 100% |

Kod:
http://rapidgator.net/file/c6c1d7f70b5098e4bc7a764ccafc7aa3/GOTG2014-PLAYNOW.part1.rar.html
http://rapidgator.net/file/3babe03aec0ac837cc2c92a754266d3a/GOTG2014-PLAYNOW.part2.rar.html
http://rapidgator.net/file/c1127a8767770dc1f8d5ed8b2388c927/GOTG2014-PLAYNOW.part3.rar.html

http://uploaded.net/file/ybknymvf/GOTG2014-PLAYNOW.part1.rar
http://uploaded.net/file/wok7a1fa/GOTG2014-PLAYNOW.part2.rar
http://uploaded.net/file/bk7baml7/GOTG2014-PLAYNOW.part3.rar

http://xerver.co/zw96ql9hc1ig/GOTG2014-PLAYNOW.part1.rar
http://xerver.co/2j6b98pxb9im/GOTG2014-PLAYNOW.part2.rar
http://xerver.co/qharfxa00gqm/GOTG2014-PLAYNOW.part3.rar

http://www.nitroflare.com/view/0E54C4952956839
http://www.nitroflare.com/view/0EE8EE7E02DC9FB
http://www.nitroflare.com/view/F2F55C3106A8D9C
 
Poslednja izmena od urednika:
Član
Učlanjen(a)
09.05.2011
Poruka
7.549
************************************************************
Guardians of the Galaxy (2014) DVDRip XviD AC3 EVO
File Size: 1.51 GiB

************************************************************

galaxy.jpg


INFO:
Kod:
General
Complete name                            : GuAoG.2014.DVDRip.XviD.AC3-EVO.avi
Format                                   : AVI
Format/Info                              : Audio Video Interleave
File size                                : 1.51 GiB
Duration                                 : 2h 0mn
Overall bit rate                         : 1 790 Kbps
Writing library                          : VirtualDub build 32593/release

Video
ID                                       : 0
Format                                   : MPEG-4 Visual
Format profile                           : Advanced [email protected]
Format settings, BVOP                    : 2
Format settings, QPel                    : No
Format settings, GMC                     : No warppoints
Format settings, Matrix                  : Default (H.263)
Muxing mode                              : Packed bitstream
Codec ID                                 : XVID
Codec ID/Hint                            : XviD
Duration                                 : 2h 0mn
Bit rate                                 : 1 397 Kbps
Width                                    : 720 pixels
Height                                   : 304 pixels
Display aspect ratio                     : 2.35:1
Frame rate                               : 23.976 fps
Color space                              : YUV
Chroma subsampling                       : 4:2:0
Bit depth                                : 8 bits
Scan type                                : Progressive
Compression mode                         : Lossy
Bits/(Pixel*Frame)                       : 0.266
Stream size                              : 1.18 GiB (78%)
Writing library                          : XviD 64

Audio
ID                                       : 1
Format                                   : AC-3
Format/Info                              : Audio Coding 3
Mode extension                           : CM (complete main)
Format settings, Endianness              : Big
Codec ID                                 : 2000
Duration                                 : 2h 0mn
Bit rate mode                            : Constant
Bit rate                                 : 384 Kbps
Channel(s)                               : 2 channels
Channel positions                        : Front: L R
Sampling rate                            : 48.0 KHz
Bit depth                                : 16 bits
Compression mode                         : Lossy
Stream size                              : 332 MiB (21%)
Alignment                                : Aligned on interleaves
Interleave, duration                     : 42 ms (1.00 video frame)
Interleave, preload duration             : 512 ms

iMDB:
Kod:
http://www.imdb.com/title/tt2015381/

vlcsnap-2014-11-10-10h12.png


vlcsnap-2014-11-10-10h12.png


vlcsnap-2014-11-10-10h13.png



Single Extraction | No Password | Interchangeable Links: | Working 100% |
Kod:
http://rapidgator.net/file/90346a7d3a8736269f95ec668a36ea6c/GuAoG14.EVO.part1.rar.html
http://rapidgator.net/file/12284d5357b4935053e21887a9df5675/GuAoG14.EVO.part2.rar.html
http://rapidgator.net/file/96a92cffebc5045681399e68e49ffef8/GuAoG14.EVO.part3.rar.html

http://uploaded.net/file/kwn5a5yr/GuAoG14.EVO.part1.rar
http://uploaded.net/file/i98ejuk3/GuAoG14.EVO.part2.rar
http://uploaded.net/file/oq3ymhg5/GuAoG14.EVO.part3.rar

http://xerver.co/hhhqy4j24zg8/GuAoG14.EVO.part1.rar
http://xerver.co/kv01n1f9sgc3/GuAoG14.EVO.part2.rar
http://xerver.co/vy8a7fffnzmm/GuAoG14.EVO.part3.rar

http://www.nitroflare.com/view/21A687F703AFB85
http://www.nitroflare.com/view/E74F139838A9196
http://www.nitroflare.com/view/296BE6551D8842F


DON'T FORGET TO SAY THANKS IF YOU LIKE MY POST !
 
Član
Učlanjen(a)
09.05.2011
Poruka
7.549
************************************************************
Guardians of the Galaxy (2014) DVDRip XviD CrEwSaDe
File Size: 1.51 GiB

************************************************************

guar.jpg


INFO:
Kod:
Format                                   : MPEG-4
Format profile                           : Base Media
Codec ID                                 : isom
File size                                : 1.51 GiB
Duration                                 : 2h 0mn
Overall bit rate mode                    : Variable
Overall bit rate                         : 1 787 Kbps

ID                                       : 1
Format                                   : MPEG-4 Visual
Format profile                           : Advanced [email protected]
Format settings, BVOP                    : Yes
Format settings, QPel                    : Yes
Format settings, GMC                     : No warppoints
Format settings, Matrix                  : Default (H.263)
Codec ID                                 : 20
Duration                                 : 2h 0mn
Bit rate mode                            : Variable
Bit rate                                 : 1 400 Kbps
Maximum bit rate                         : 8 406 Kbps
Width                                    : 720 pixels
Height                                   : 304 pixels
Display aspect ratio                     : 2.35:1
Frame rate mode                          : Constant
Frame rate                               : 23.976 fps
Color space                              : YUV
Chroma subsampling                       : 4:2:0
Bit depth                                : 8 bits
Scan type                                : Progressive
Compression mode                         : Lossy
Bits/(Pixel*Frame)                       : 0.267
Stream size                              : 1.18 GiB (78%)
Writing library                          : XviD 1.2.1 (UTC 2008-12-04)

Format                                   : AC-3
Format/Info                              : Audio Coding 3
Mode extension                           : CM (complete main)
Format settings, Endianness              : Big
Codec ID                                 : ac-3
Duration                                 : 2h 0mn
Bit rate mode                            : Constant
Bit rate                                 : 384 Kbps
Channel(s)                               : 6 channels
Channel positions                        : Front: L C R, Side: L R, LFE
Sampling rate                            : 44.1 KHz
Bit depth                                : 16 bits
Compression mode                         : Lossy
Stream size                              : 332 MiB (21%)

iMDB:
Kod:
http://www.imdb.com/title/tt2015381/

guardians.jpg


Single Extraction | No Password | Interchangeable Links: | Working 100% |

Kod:
http://rapidgator.net/file/15c3f0d4818c1e67e1d7cad00716bab3/GotG.2014.CrEwSaDe.part1.rar.html
http://rapidgator.net/file/948d0b2aa27783efb0f13c05164d0525/GotG.2014.CrEwSaDe.part2.rar.html
http://rapidgator.net/file/e5a021da473c4a13ee92793b783d0018/GotG.2014.CrEwSaDe.part3.rar.html

http://uploaded.net/file/apghlpob/GotG.2014.CrEwSaDe.part1.rar
http://uploaded.net/file/5bf2y2p7/GotG.2014.CrEwSaDe.part2.rar
http://uploaded.net/file/qzy0dm46/GotG.2014.CrEwSaDe.part3.rar

http://xerver.co/66vj1ceb7zc6/GotG.2014.CrEwSaDe.part1.rar
http://xerver.co/auo5blk0moj3/GotG.2014.CrEwSaDe.part2.rar
http://xerver.co/5w3yufx3jza7/GotG.2014.CrEwSaDe.part3.rar

http://www.nitroflare.com/view/CBC6B3F9C02E205
http://www.nitroflare.com/view/849462E873C1F12
http://www.nitroflare.com/view/73EE6AE5F19DE4A
 
Član
Učlanjen(a)
26.10.2009
Poruka
521
Guardians.of.the.Galaxy.2014.V2.RETAIL.DVDRip.XviD.AC3-EVO
337dea8d97fb8f58c38a7cbd80fb683b.jpeg


NFO:
940c96c2e7b3dce9b70cab884fc6d2a7.png


IMDb:
Kod:
http://www.imdb.com/title/tt2015381/

Screenshots:
0c96c641e7b3ae63ea1af08b74021ba3.png

13cf2e8abe7fcb8b8630c0c2b967540c.png

c81adfc6404d5d3e46518747cb03042a.png

a2f6e5f5270bba09767585c9086f16d0.png

456bc522d65ea8872d9dbdeb2b98bcaa.png

cdcf2f69cdbcb5083357914619ae6eb5.png

400f5e62004fb321f4e16b07ea775ed8.png


Download:
Kod:
http://ul.to/0b27grc6
http://ul.to/yzvg82pv
http://ul.to/c5raihfa

c835ccbf151f2d62ad36640074906fcf.png
 
Član
Učlanjen(a)
09.05.2011
Poruka
7.549
************************************************************
Guardians of the Galaxy (2014) V2 RETAIL DVDRip XviD AC3 EVO
File Size: 2.18 GiB

************************************************************

gua.jpg


INFO:
Kod:
General
Complete name                            : GoTG14V2DVDRip.avi
Format                                   : AVI
Format/Info                              : Audio Video Interleave
Format profile                           : OpenDML
File size                                : 2.18 GiB
Duration                                 : 2h 0mn
Overall bit rate                         : 2 582 Kbps
Writing library                          : VirtualDub build 32593/release

Video
ID                                       : 0
Format                                   : MPEG-4 Visual
Format profile                           : Advanced [email protected]
Format settings, BVOP                    : 2
Format settings, QPel                    : No
Format settings, GMC                     : No warppoints
Format settings, Matrix                  : Default (H.263)
Muxing mode                              : Packed bitstream
Codec ID                                 : XVID
Codec ID/Hint                            : XviD
Duration                                 : 2h 0mn
Bit rate                                 : 2 186 Kbps
Width                                    : 720 pixels
Height                                   : 304 pixels
Display aspect ratio                     : 2.35:1
Frame rate                               : 23.976 fps
Color space                              : YUV
Chroma subsampling                       : 4:2:0
Bit depth                                : 8 bits
Scan type                                : Progressive
Compression mode                         : Lossy
Bits/(Pixel*Frame)                       : 0.417
Stream size                              : 1.85 GiB (85%)
Writing library                          : XviD 64

Audio
ID                                       : 1
Format                                   : AC-3
Format/Info                              : Audio Coding 3
Mode extension                           : CM (complete main)
Format settings, Endianness              : Big
Codec ID                                 : 2000
Duration                                 : 2h 0mn
Bit rate mode                            : Constant
Bit rate                                 : 384 Kbps
Channel(s)                               : 6 channels
Channel positions                        : Front: L C R, Side: L R, LFE
Sampling rate                            : 48.0 KHz
Bit depth                                : 16 bits
Compression mode                         : Lossy
Stream size                              : 332 MiB (15%)
Alignment                                : Split accross interleaves
Interleave, duration                     : 42 ms (1.00 video frame)
Interleave, preload duration             : 500 ms

iMDB:
Kod:
http://www.imdb.com/title/tt2015381/

guard.jpg


Single Extraction | No Password | Interchangeable Links: | Working 100% |

Kod:
http://uploaded.net/file/f8e5ozz8/GoTG14V2DVDRip.part1.rar
http://uploaded.net/file/fpvcbrr9/GoTG14V2DVDRip.part2.rar
http://uploaded.net/file/7hbtvv55/GoTG14V2DVDRip.part3.rar
http://uploaded.net/file/4zrafab8/GoTG14V2DVDRip.part4.rar

http://rapidgator.net/file/f1b3351b0f99da1bfd24c1cec86b963d/GoTG14V2DVDRip.part1.rar.html
http://rapidgator.net/file/1da904858026ce375cd35b7e3aa76757/GoTG14V2DVDRip.part2.rar.html
http://rapidgator.net/file/44a4cc676a607e136904be1b8c26fc85/GoTG14V2DVDRip.part3.rar.html
http://rapidgator.net/file/a9a6cd6f80999a3c199094f2c49189ba/GoTG14V2DVDRip.part4.rar.html

http://k2s.cc/file/3d4fe2225bf1e/GoTG14V2DVDRip.part1.rar
http://k2s.cc/file/32e991092fc74/GoTG14V2DVDRip.part2.rar
http://k2s.cc/file/9ad9e5c5dd060/GoTG14V2DVDRip.part3.rar
http://k2s.cc/file/5b4b5d0ef272b/GoTG14V2DVDRip.part4.rar

http://www.nitroflare.com/view/E7AA72CFF1F4DFE/gotg14v2dvdrip.part1.rar
http://www.nitroflare.com/view/57F568E21ED225A/gotg14v2dvdrip.part2.rar
http://www.nitroflare.com/view/FB376F9835591E4/gotg14v2dvdrip.part3.rar
http://www.nitroflare.com/view/58CA25B6277EF39/gotg14v2dvdrip.part4.rar


43495332458845760398.png

KEEP IN TOUCH FOR LATEST UPLOAD..
Your support encourage me...


DON'T FORGET TO SAY THANKS IF YOU LIKE MY POST !
 
Top