Šta je novo?
VIP IPTV
Učlanjen(a)
07.09.2009
Poruka
899
Growth 2009 DVDRip XviD-VoMiT

===========================

2vbk0hj.jpg





fcFbWK.png



2z4xum8.png

2h2eaz4.png

n6z5hz.png

15i97dc.png


===========================

4y4lTW.png


Video Codec....: XviD-1.2.2
Video Bitrate..: 720 kbps
Audio Codec....: AC3 5.1 ch
Audio Bitrate..: 448 kbps
Aspect Ratio...: 2.31:1
Resolution.....: 592 x 256
Frame Rate.....: 23.976 fps
Genre..........: Sci-Fi/Thriller
Runtime........: 90 mins
Audio Language.: English
Release Date...: 01.29.2010
Theater Date...: N/A
IMDB Rating....: N/A

===========================

-V2Ppj.png

Kod:
http://www.imdb.com/title/tt1300159/




IHETDu.png


Kod:
http://rapidshare.com/files/343310142/Growth-Warezinc.com.part1.rar
http://rapidshare.com/files/343310461/Growth-Warezinc.com.part2.rar
http://rapidshare.com/files/343310514/Growth-Warezinc.com.part3.rar
http://rapidshare.com/files/343310595/Growth-Warezinc.com.part4.rar
http://rapidshare.com/files/343312171/Growth-Warezinc.com.part5.rar
http://rapidshare.com/files/343312195/Growth-Warezinc.com.part6.rar
http://rapidshare.com/files/343312240/Growth-Warezinc.com.part7.rar
http://rapidshare.com/files/343311353/Growth-Warezinc.com.part8.rar

Tovuv3.png
 
Učlanjen(a)
19.09.2009
Poruka
27.643
Growth (2009)

100129071548391271.jpg


:info:
Kod:
[url=http://www.imdb.com/title/tt1300159/]Growth (2009)[/url]

:download:
Kod:
[url=http://hotfile.com/dl/26329061/c768233/Growth_2009_DVDRip_XviD-VoMiT.part1.rar.html]Hotfile.com: One click file hosting[/url]
[url=http://hotfile.com/dl/26330110/d1863c3/Growth_2009_DVDRip_XviD-VoMiT.part2.rar.html]Hotfile.com: One click file hosting[/url]
[url=http://hotfile.com/dl/26331261/488606f/Growth_2009_DVDRip_XviD-VoMiT.part3.rar.html]Hotfile.com: One click file hosting[/url]
[url=http://hotfile.com/dl/26331986/0b91153/Growth_2009_DVDRip_XviD-VoMiT.part4.rar.html]Hotfile.com: One click file hosting[/url]
 
LEGEND
Učlanjen(a)
05.05.2009
Poruka
4.736
Growth (2009) + prevod





a43hb9.jpg






Kod:
[URL="http://www.imdb.com/title/tt1300159/"]Growth (2009)[/URL]

In 1989, a breakthrough in advanced parasitic research on Cuttyhunk Island, gave scientists a jump in human evolution...


Format : AVI
Format/Info : Audio Video Interleave
File size : 702 MiB
Duration : 1h 26mn
Overall bit rate : 1 134 Kbps

Video
ID : 0
Format : MPEG-4 Visual
Codec ID : XVID
Codec ID/Hint : XviD
Duration : 1h 26mn
Bit rate : 677 Kbps
Width : 592 pixels
Height : 256 pixels
Display aspect ratio : 2.35:1
Frame rate : 25.000 fps
Resolution : 24 bits
Colorimetry : 4:2:0
Scan type : Progressive
Bits/(Pixel*Frame) : 0.179
Stream size : 419 MiB (60%)

Audio
ID : 1
Format : AC-3
Format/Info : Audio Coding 3
Codec ID : 2000
Duration : 1h 26mn
Bit rate mode : Constant
Bit rate : 448 Kbps
Channel(s) : 6 channels
Channel positions : Front: L C R, Surround: L R, LFE
Sampling rate : 48.0 KHz
Stream size : 277 MiB (39%)
Alignment : Split accross interleaves
Interleave, duration : 40 ms (1.00 video frame)
Interleave, preload duration : 500 ms
1zx5hxh.jpg



Kod:
 [url=http://rapidshare.com/files/368196351/Growth.2009.DVDRip.XviD-VoMiT.part1.rar]RapidShare: 1-CLICK Web hosting - Easy Filehosting[/url]
 [url=http://rapidshare.com/files/368199248/Growth.2009.DVDRip.XviD-VoMiT.part2.rar]RapidShare: 1-CLICK Web hosting - Easy Filehosting[/url]
 [url=http://rapidshare.com/files/368202358/Growth.2009.DVDRip.XviD-VoMiT.part3.rar]RapidShare: 1-CLICK Web hosting - Easy Filehosting[/url]
 [url=http://rapidshare.com/files/368205117/Growth.2009.DVDRip.XviD-VoMiT.part4.rar]RapidShare: 1-CLICK Web hosting - Easy Filehosting[/url]
 [url=http://rapidshare.com/files/368207777/Growth.2009.DVDRip.XviD-VoMiT.part5.rar]RapidShare: 1-CLICK Web hosting - Easy Filehosting[/url]
 [url=http://rapidshare.com/files/368210297/Growth.2009.DVDRip.XviD-VoMiT.part6.rar]RapidShare: 1-CLICK Web hosting - Easy Filehosting[/url]
 [url=http://rapidshare.com/files/368212791/Growth.2009.DVDRip.XviD-VoMiT.part7.rar]RapidShare: 1-CLICK Web hosting - Easy Filehosting[/url]
 [url=http://rapidshare.com/files/368215091/Growth.2009.DVDRip.XviD-VoMiT.part8.rar]RapidShare: 1-CLICK Web hosting - Easy Filehosting[/url]
 
Član
Učlanjen(a)
01.01.2010
Poruka
202
Growth (2009)

DVDRip.XviD-VoMiT | 592x256

db340fa41354afaf9bf6bfc4e3bd8068.jpg


9e023826843b1aa15b7d958dedf477c6.png


Kod:
http://www.imdb.com/title/tt1300159/

In 1989, a breakthrough in advanced parasitic research on Cuttyhunk Island, gave scientists a jump in human evolution..

5951a953c8f51ecb6b4ac32771be5641.png


Kod:
http://rapidshare.com/files/415712892/424.Gro.unitedwarez.net.part1.rar
http://rapidshare.com/files/415712919/424.Gro.unitedwarez.net.part2.rar
http://rapidshare.com/files/415712918/424.Gro.unitedwarez.net.part3.rar
http://rapidshare.com/files/415712832/424.Gro.unitedwarez.net.part4.rar
 
Top