Šta je novo?
Član
Učlanjen(a)
09.05.2011
Poruka
7.549
===============================
Grown Ups 2 (2013) 720p BRRip H264 AAC BLiTZCRiEG
File Size: 1.80 GiB

===============================


grown.png




General
Complete name : Grown.Ups.2.2013.720p.BRRiP.H264.AAC.5.1.CH-BLiTZCRiEG.mp4
Format : MPEG-4
Format profile : Base Media
Codec ID : isom
File size : 1.80 GiB
Duration : 1h 40mn
Overall bit rate mode : Variable
Overall bit rate : 2 557 Kbps
Encoded date : UTC 2013-10-19 11:01:04
Tagged date : UTC 2013-10-19 11:01:04


Video
ID : 1
Format : AVC
Format/Info : Advanced Video Codec
Format profile : [email protected]
Format settings, CABAC : Yes
Format settings, ReFrames : 4 frames
Codec ID : avc1
Codec ID/Info : Advanced Video Coding
Duration : 1h 40mn
Bit rate : 2 378 Kbps
Maximum bit rate : 20.7 Mbps
Width : 1 280 pixels
Height : 688 pixels
Display aspect ratio : 1.85:1
Frame rate mode : Constant
Frame rate : 23.976 fps
Color space : YUV
Chroma subsampling : 4:2:0
Bit depth : 8 bits
Scan type : Progressive
Bits/(Pixel*Frame) : 0.113
Stream size : 1.68 GiB (93%)
Writing library : x264 core 133 r2334 a3ac64b


Audio
ID : 2
Format : AAC
Format/Info : Advanced Audio Codec
Format profile : LC
Codec ID : 40
Duration : 1h 40mn
Bit rate mode : Variable
Bit rate : 175 Kbps
Maximum bit rate : 198 Kbps
Channel count : 6 channels
Channel positions : Front: L C R, Side: L R, LFE
Sampling rate : 48.0 KHz
Compression mode : Lossy
Stream size : 126 MiB (7%)


PLOT: After moving his family back to his hometown to be with his friends and their kids, Lenny finds out that between old bullies, new bullies, schizo bus drivers, drunk cops on skis, and 400 costumed party crashers sometimes crazy follows you.


Kod:
http://www.imdb.com/title/tt2191701/




grown2.jpg



DOWNLOAD:
Kod:
http://uploaded.net/file/styqhuy8/Grown2.720p.BRRip.BLiTZCRiEG.part1.rar
http://uploaded.net/file/ndd15v23/Grown2.720p.BRRip.BLiTZCRiEG.part2.rar
http://uploaded.net/file/b1efmr99/Grown2.720p.BRRip.BLiTZCRiEG.part3.rar
http://uploaded.net/file/p41y8tjb/Grown2.720p.BRRip.BLiTZCRiEG.part4.rar


http://rapidgator.net/file/c332a0317acd98fe80025ae3f5cbad76/Grown2.720p.BRRip.BLiTZCRiEG.part1.rar.html
http://rapidgator.net/file/c7ea06555af4f79757cf9e15230c9f72/Grown2.720p.BRRip.BLiTZCRiEG.part2.rar.html
http://rapidgator.net/file/11d488a09e069c97468d311f26df5a30/Grown2.720p.BRRip.BLiTZCRiEG.part3.rar.html
http://rapidgator.net/file/c63ba6657f4fe5b4fe61b721a4a90be8/Grown2.720p.BRRip.BLiTZCRiEG.part4.rar.html


http://ryushare.com/9unc2d4slrnl/Grown2.720p.BRRip.BLiTZCRiEG.part1.rar
http://ryushare.com/6mqp9b7zsi53/Grown2.720p.BRRip.BLiTZCRiEG.part2.rar
http://ryushare.com/1ujesm2rm1qy/Grown2.720p.BRRip.BLiTZCRiEG.part3.rar
http://ryushare.com/efowdfu1h8ou/Grown2.720p.BRRip.BLiTZCRiEG.part4.rar


http://lumfile.com/z3uvh64iebud/Grown2.720p.BRRip.BLiTZCRiEG.part1.rar.html
http://lumfile.com/0euiq4gh80hy/Grown2.720p.BRRip.BLiTZCRiEG.part2.rar.html
http://lumfile.com/ypijeu6ls35p/Grown2.720p.BRRip.BLiTZCRiEG.part3.rar.html
http://lumfile.com/qacdh3nc2ehh/Grown2.720p.BRRip.BLiTZCRiEG.part4.rar.html
 
Poslednja izmena od urednika:
Učlanjen(a)
28.09.2013
Poruka
122
=
Grown Ups 2 (2013) 720p BRRip H264 AAC BLiTZCRiEG
File Size: 1.80 GiB

=

grown.png


General
Complete name : Grown.Ups.2.2013.720p.BRRiP.H264.AAC.5.1.CH-BLiTZCRiEG.mp4
Format : MPEG-4
Format profile : Base Media
Codec ID : isom
File size : 1.80 GiB
Duration : 1h 40mn
Overall bit rate mode : Variable
Overall bit rate : 2 557 Kbps
Encoded date : UTC 2013-10-19 11:01:04
Tagged date : UTC 2013-10-19 11:01:04

Video
ID : 1
Format : AVC
Format/Info : Advanced Video Codec
Format profile : [email protected]
Format settings, CABAC : Yes
Format settings, ReFrames : 4 frames
Codec ID : avc1
Codec ID/Info : Advanced Video Coding
Duration : 1h 40mn
Bit rate : 2 378 Kbps
Maximum bit rate : 20.7 Mbps
Width : 1 280 pixels
Height : 688 pixels
Display aspect ratio : 1.85:1
Frame rate mode : Constant
Frame rate : 23.976 fps
Color space : YUV
Chroma subsampling : 4:2:0
Bit depth : 8 bits
Scan type : Progressive
Bits/(Pixel*Frame) : 0.113
Stream size : 1.68 GiB (93%)
Writing library : x264 core 133 r2334 a3ac64b

Audio
ID : 2
Format : AAC
Format/Info : Advanced Audio Codec
Format profile : LC
Codec ID : 40
Duration : 1h 40mn
Bit rate mode : Variable
Bit rate : 175 Kbps
Maximum bit rate : 198 Kbps
Channel count : 6 channels
Channel positions : Front: L C R, Side: L R, LFE
Sampling rate : 48.0 KHz
Compression mode : Lossy
Stream size : 126 MiB (7%)

PLOT: After moving his family back to his hometown to be with his friends and their kids, Lenny finds out that between old bullies, new bullies, schizo bus drivers, drunk cops on skis, and 400 costumed party crashers sometimes crazy follows you.

Kod:
http://www.imdb.com/title/tt2191701/

grown2.jpg


DOWNLOAD:


Kod:
http://uploaded.net/file/styqhuy8/Grown2.720p.BRRip.BLiTZCRiEG.part1.rar
http://uploaded.net/file/ndd15v23/Grown2.720p.BRRip.BLiTZCRiEG.part2.rar
http://uploaded.net/file/b1efmr99/Grown2.720p.BRRip.BLiTZCRiEG.part3.rar
http://uploaded.net/file/p41y8tjb/Grown2.720p.BRRip.BLiTZCRiEG.part4.rar

http://rapidgator.net/file/c332a0317acd98fe80025ae3f5cbad76/Grown2.720p.BRRip.BLiTZCRiEG.part1.rar.html
http://rapidgator.net/file/c7ea06555af4f79757cf9e15230c9f72/Grown2.720p.BRRip.BLiTZCRiEG.part2.rar.html
http://rapidgator.net/file/11d488a09e069c97468d311f26df5a30/Grown2.720p.BRRip.BLiTZCRiEG.part3.rar.html
http://rapidgator.net/file/c63ba6657f4fe5b4fe61b721a4a90be8/Grown2.720p.BRRip.BLiTZCRiEG.part4.rar.html

http://ryushare.com/9unc2d4slrnl/Grown2.720p.BRRip.BLiTZCRiEG.part1.rar
http://ryushare.com/6mqp9b7zsi53/Grown2.720p.BRRip.BLiTZCRiEG.part2.rar
http://ryushare.com/1ujesm2rm1qy/Grown2.720p.BRRip.BLiTZCRiEG.part3.rar
http://ryushare.com/efowdfu1h8ou/Grown2.720p.BRRip.BLiTZCRiEG.part4.rar

http://lumfile.com/z3uvh64iebud/Grown2.720p.BRRip.BLiTZCRiEG.part1.rar.html
http://lumfile.com/0euiq4gh80hy/Grown2.720p.BRRip.BLiTZCRiEG.part2.rar.html
http://lumfile.com/ypijeu6ls35p/Grown2.720p.BRRip.BLiTZCRiEG.part3.rar.html
http://lumfile.com/qacdh3nc2ehh/Grown2.720p.BRRip.BLiTZCRiEG.part4.rar.html
 
Poslednja izmena od urednika:
Top