Šta je novo?

Grbavica aka Esma's Secret - Grbavica (2006)

  • Začetnik teme dragansd84
  • Datum pokretanja
dragansd84

dragansd84

VIP IPTV
Učlanjen(a)
09.12.2012
Poruka
19.646
Grbavica: The Land of My Dreams (2006)



http://www.imdb.com/title/tt0464029/

Samohrana majka Esma živi sa svojom dvanaestogodišnjom kćerkom Sarom u sarajevskom naselju Grbavica, u kojem se život, nakon ratova u bivšoj Jugoslaviji devedesetih godina, još uvijek sastavlja. Sara ne zna tačno gdje i kako je njen otac časno poginuo. Pitanje Sarinog oca postaje problem kada Sari zatreba potvrda da je njezin otac poginuo kao šehid da bi dobila popust za predstojeći izlet sa školom. Saznavši da je njezina majka platila punu cijenu izleta, Sara agresivno zahtijeva istinu. Esma gubi živce i grubo joj otkriva da je začeta silovanjem u jednom kampu za ratne zarobljenike.



Hidden content
You need to react to this post in order to see this content.
 
Wolf 13

Wolf 13

MODERATOR
Učlanjen(a)
10.10.2009
Poruka
13.278
Grbavica (2006) DVDrip AC3 5.1 x264 by Wolf
(MKV) HQ



Kod:
  https://www.imdb.com/title/tt0464029/
General
Unique ID : 238498754231439848353999724666794745536 (0xB36D307283786A37DE66222DD7631EC0)
Complete name : Grbavica (2006) DVDrip AC3 5.1 x264 by Wolf.mkv
Format : Matroska
Format version : Version 4
File size : 1.12 GiB
Duration : 1 h 31 min
Overall bit rate : 1 758 kb/s
Encoded date : UTC 2019-01-09 15:21:39 / UTC 2019-01-09T13:17:08Z
Writing application : mkvmerge v30.1.0 ('Forever And More') 64-bit
Writing library : libebml v1.3.6 + libmatroska v1.4.9 / Lavf57.7.2

Video
ID : 1
Format : AVC
Format/Info : Advanced Video Codec
Format profile : [email protected]
Format settings : CABAC / 8 Ref Frames
Format settings, CABAC : Yes
Format settings, ReFrames : 8 frames
Codec ID : V_MPEG4/ISO/AVC
Duration : 1 h 31 min
Bit rate : 1 500 kb/s
Width : 706 pixels
Height : 416 pixels
Display aspect ratio : 16:9
Frame rate mode : Constant
Frame rate : 25.000 FPS
Color space : YUV
Chroma subsampling : 4:2:0
Bit depth : 8 bits
Scan type : Progressive
Bits/(Pixel*Frame) : 0.204
Stream size : 955 MiB (83%)
Title : Grbavica (2006)
Writing library : x264 core 155 r2901 7d0ff22
Encoding settings : cabac=1 / ref=8 / deblock=1:-1:-1 / analyse=0x3:0x133 / me=umh / subme=9 / psy=1 / psy_rd=1.00:0.15 / mixed_ref=1 / me_range=16 / chroma_me=1 / trellis=2 / 8x8dct=1 / cqm=0 / deadzone=21,11 / fast_pskip=1 / chroma_qp_offset=-3 / threads=6 / lookahead_threads=1 / sliced_threads=0 / nr=0 / decimate=1 / interlaced=0 / bluray_compat=0 / constrained_intra=0 / bframes=3 / b_pyramid=2 / b_adapt=2 / b_bias=0 / direct=3 / weightb=1 / open_gop=0 / weightp=2 / keyint=250 / keyint_min=25 / scenecut=40 / intra_refresh=0 / rc_lookahead=60 / rc=2pass / mbtree=1 / bitrate=1500 / ratetol=1.0 / qcomp=0.60 / qpmin=0 / qpmax=69 / qpstep=4 / cplxblur=20.0 / qblur=0.5 / vbv_maxrate=300000 / vbv_bufsize=300000 / nal_hrd=none / filler=0 / ip_ratio=1.40 / aq=1:1.00
Language : Bosnian
Default : Yes
Forced : No
Color range : Limited
Color primaries : BT.601 PAL
Transfer characteristics : BT.709
Matrix coefficients : BT.601
Statistics Tags Issue : mkvmerge v30.1.0 ('Forever And More') 64-bit 2019-01-09 15:21:39 / mkvmerge v30.1.0 ('Forever And More') 64-bit 2019-01-09 15:21:39 / UTC 2019-01-09T13:17:08Z
FromStats_BitRate : 1500138
FromStats_Duration : 01:31:00.320000000
FromStats_FrameCount : 136508
FromStats_StreamSize : 1023904871

Audio
ID : 2
Format : E-AC-3
Format/Info : Enhanced AC-3
Commercial name : Dolby Digital Plus
Codec ID : A_EAC3
Duration : 1 h 31 min
Bit rate mode : Constant
Bit rate : 256 kb/s
Channel(s) : 6 channels
Channel layout : L R C LFE Ls Rs
Sampling rate : 48.0 kHz
Frame rate : 31.250 FPS (1536 SPF)
Compression mode : Lossy
Delay relative to video : -5 ms
Stream size : 167 MiB (15%)
Title : Grbavica (2006)
Language : Bosnian
Service kind : Complete Main
Default : Yes
Forced : No
Statistics Tags Issue : mkvmerge v30.1.0 ('Forever And More') 64-bit 2019-01-09 15:21:39 / mkvmerge v30.1.0 ('Forever And More') 64-bit 2019-01-09 15:21:39 / UTC 2019-01-09T13:17:08Z
FromStats_BitRate : 256000
FromStats_Duration : 01:31:00.416000000
FromStats_FrameCount : 170638
FromStats_StreamSize : 174733312

Hidden content
You need to react to this post in order to see this content.

 
Poslednja izmena:
Top