Šta je novo?

Grad heroja aka Big Hero 6 (2014)

  • Začetnik teme joca64
  • Datum pokretanja
joca64

joca64

Učlanjen(a)
12.10.2016
Poruka
1.237
Grad heroja (2014) BluRay x264




MOVIE INFORMATION:
Directors: Don Hall, Chris Williams
Stars: Ryan Potter, Scott Adsit, Jamie Chung
Genres: Animation, Action, Adventure
Language: Sinhronizovano na Hrvatski
Format: Matroska
File Size: 834 MB
Resolution: 1280x536
Runtime: 1 h 41 min

RADNJA FILMA:
Smeštena u megalopolis San Fransokio, a vremenski raspoređena u blisku budućnost, radnja prati
14-godišnjeg genijalca nadarenog za tehničko-tehnološke pronalaske koji bi mogli da svet učine
još boljim mestom za život. Međutim, tinejdžer Hiro traći svoj talenat na borbe robota, pri čemu
se i kladi, tako da sebi obezbeđuje siguran izvor prihoda. Klađenje je ilegalno i Hiro ubrzo upada
u nevolju iz koje ga izvlači stariji brat Tadaši. Upoznaje ga sa svojom ekipom, neobičnim likovima
koji pohađaju tehnološki fakultet gde im je omogućeno da svoje znanje i energiju iskoriste na veoma
kreativan način. Svako iz družine radi na usavršavanju sopstvenog naučno-istraživačkog projekta.
Očaran ambijentom koji odiše pozitivnom energijom, mladalačkim entuzijazmom, težnjom da se krupnim
koracima krene u novo, revolucionarno doba robotike, Hiro oduševljeno pristaje da postane deo sveta
u kome će moći da razvije sopstvene pronalazačke sposobnosti.

MOVIE SCREENSHOTS:



YOUTUBE:


IMDB:

Kod:
https://www.imdb.com/title/tt2245084/
DOWNLOAD:

Hidden content
You need to react to this post in order to see this content.
 
Poslednja izmena:
S

simark

Učlanjen(a)
05.09.2009
Poruka
189
Град хероја -на српском језику
Big hero 6(serbian, english,2014)


Ево и оскаровца на српском језику. Наравно у вишој резолуцији и са одличним српским (и енг.) звуком. Уживајте...


Complete name :Град хероја - Big.Hero.6.2014.720p.BluRay.x264.Dual-simark.mkv

File size : 902 MiB
Duration : 1 h 41 min

Video
Codec ID : V_MPEG4/ISO/AVC
Bit rate : 1 014 kb/s
Width : 1 280 pixels
Height : 536 pixels
Display aspect ratio : 2.40:1
Frame rate : 23.976 (24000/1001) FPS
Stream size : 739 MiB (82%)

Audio #1
Codec ID : A_AAC-2
Bit rate : 128 kb/s
Channel(s) : 2 channels
Sampling rate : 48.0 kHz
Stream size : 93.0 MiB (10%)
Language : Serbian

Audio #2
Codec ID : A_AAC-2
Bit rate : 93.7 kb/s
Channel(s) : 2 channels
Sampling rate : 48.0 kHz
Stream size : 68.2 MiB (8%)
Language : English


Hidden content
You need to react to this post in order to see this content.
Нема шифре...
 
Top