Šta je novo?

Godina majmuna aka Year of the Monkey (2018)

MODERATOR
Učlanjen(a)
10.10.2009
Poruka
13.331
Godina na majmunot (2018) 720p WEBrip DD5.1 x264 by Wolf
(MKV)
...sa prevodom

P3XzxTs.jpg


Kod:
 https://www.imdb.com/title/tt5924480/

General
Unique ID : 219147957777931252786887251218620055563 (0xA4DE5C8599BE3825278663D351E9800B)
Complete name : Godina na majmunot (2018) 720p WEBrip DD5.1 x264 by Wolf.mkv
Format : Matroska
Format version : Version 4
File size : 1.39 GiB
Duration : 1 h 47 min
Overall bit rate : 1 857 kb/s
Encoded date : UTC 2019-09-09 07:44:10
Writing application : mkvmerge v37.0.0 ('Leave It') 64-bit
Writing library : libebml v1.3.9 + libmatroska v1.5.2

Video
ID : 1
Format : AVC
Format/Info : Advanced Video Codec
Format profile : High@L5.1
Format settings : CABAC / 16 Ref Frames
Format settings, CABAC : Yes
Format settings, Reference : 16 frames
Codec ID : V_MPEG4/ISO/AVC
Duration : 1 h 47 min
Bit rate : 1 600 kb/s
Width : 1 280 pixels
Height : 720 pixels
Display aspect ratio : 2.40:1
Frame rate mode : Constant
Frame rate : 25.000 FPS
Color space : YUV
Chroma subsampling : 4:2:0
Bit depth : 8 bits
Scan type : Progressive
Bits/(Pixel*Frame) : 0.069
Stream size : 1.20 GiB (86%)
Title : Godina na majmunot (2018)
Writing library : x264 core 157 r2935 545de2f
Encoding settings : cabac=1 / ref=16 / deblock=1:-1:-1 / analyse=0x3:0x133 / me=umh / subme=10 / psy=1 / psy_rd=1.00:0.15 / mixed_ref=1 / me_range=24 / chroma_me=1 / trellis=2 / 8x8dct=1 / cqm=0 / deadzone=21,11 / fast_pskip=1 / chroma_qp_offset=-3 / threads=6 / lookahead_threads=1 / sliced_threads=0 / nr=0 / decimate=1 / interlaced=0 / bluray_compat=0 / constrained_intra=0 / bframes=8 / b_pyramid=2 / b_adapt=2 / b_bias=0 / direct=3 / weightb=1 / open_gop=0 / weightp=2 / keyint=250 / keyint_min=25 / scenecut=40 / intra_refresh=0 / rc_lookahead=60 / rc=2pass / mbtree=1 / bitrate=1600 / ratetol=1.0 / qcomp=0.60 / qpmin=0 / qpmax=69 / qpstep=4 / cplxblur=20.0 / qblur=0.5 / vbv_maxrate=300000 / vbv_bufsize=300000 / nal_hrd=none / filler=0 / ip_ratio=1.40 / aq=1:1.00
Language : Macedonian
Default : Yes
Forced : No
Color range : Limited
Color primaries : BT.709
Transfer characteristics : BT.709
Matrix coefficients : BT.709

Audio
ID : 2
Format : E-AC-3
Format/Info : Enhanced AC-3
Commercial name : Dolby Digital Plus
Codec ID : A_EAC3
Duration : 1 h 47 min
Bit rate mode : Constant
Bit rate : 256 kb/s
Channel(s) : 6 channels
Channel layout : L R C LFE Ls Rs
Sampling rate : 48.0 kHz
Frame rate : 31.250 FPS (1536 SPF)
Compression mode : Lossy
Delay relative to video : -26 ms
Stream size : 197 MiB (14%)
Title : Godina na majmunot (2018)
Language : Macedonian
Service kind : Complete Main
Default : Yes
Forced : No

Text
ID : 3
Format : UTF-8
Codec ID : S_TEXT/UTF8
Codec ID/Info : UTF-8 Plain Text
Duration : 1 h 41 min
Bit rate : 33 b/s
Count of elements : 648
Stream size : 24.9 KiB (0%)
Title : GODINA MAJMUNA
Language : Serbian
Default : Yes
Forced : No

epYscVA.png

Hidden content
You need to react to this post in order to see this content.
zbNKcak.jpg

Hidden content
You need to react to this post in order to see this content.
B75l151.png

lWCkiep.jpg
 
Top