Šta je novo?
Član
Učlanjen(a)
09.05.2011
Poruka
7.549
=
Gangster Squad (2013) MultiSubs 720p BluRay DTS x264 BLiNK
File Size: 6.47 GiB

=

gang.jpg


Title: Gangster Squad
Year: 2013
Genre: Action, Crime, Drama, Thriller
Rating: 6.8 (75,242 votes)
Runtime: 1 h 53 min
Director: Ruben Fleischer
Cast: Sean Penn, Ryan Gosling, Emma Stone, Giovanni Ribisi
Plot:
Kod:
Los Angeles, 1949: A secret crew of police officers led by two determined sergeants work together in an effort to take down the ruthless mob king Mickey Cohen who runs the city.


General
Complete name : Gangster.Squad.2013.MultiSubs.720p.BluRay.DTS.x264-BLiNK.mkv
Format : Matroska
Format version : Version 2
File size : 6.47 GiB
Duration : 1h 52mn
Overall bit rate : 8 203 Kbps
Encoded date : UTC 2014-01-16 06:48:35
Writing application : mkvmerge v6.5.0 ('Isn't she lovely') built on Oct 20 2013 12:50:05
Writing library : libebml v1.3.0 + libmatroska v1.4.1

Video
ID : 1
Format : AVC
Format/Info : Advanced Video Codec
Format profile : [email protected]
Format settings, CABAC : Yes
Format settings, ReFrames : 5 frames
Codec ID : V_MPEG4/ISO/AVC
Duration : 1h 52mn
Bit rate : 6 000 Kbps
Width : 1 280 pixels
Height : 536 pixels
Display aspect ratio : 2.40:1
Frame rate mode : Constant
Frame rate : 23.976 fps
Color space : YUV
Chroma subsampling : 4:2:0
Bit depth : 8 bits
Scan type : Progressive
Bits/(Pixel*Frame) : 0.365
Stream size : 4.65 GiB (72%)
Writing library : x264 core 138 r2358 9e941d1
Language : English
Default : Yes
Forced : No

Audio #1
ID : 2
Format : DTS
Format/Info : Digital Theater Systems
Mode : 16
Format settings, Endianness : Big
Codec ID : A_DTS
Duration : 1h 52mn
Bit rate mode : Constant
Bit rate : 1 509 Kbps
Channel count : 6 channels
Channel positions : Front: L C R, Side: L R, LFE
Sampling rate : 48.0 KHz
Bit depth : 24 bits
Compression mode : Lossy
Stream size : 1.19 GiB (18%)
Language : English
Default : Yes
Forced : No

Imdb Url:
Kod:
[url]http://www.imdb.com/title/tt1321870/[/url]
Movie Trailer:
Kod:
[media=youtube]wWiq22vdLls[/media]


gang.png



SINGLE EXTRACTION | NO PASSWORD | INTERCHANGEABLE LINK:
Kod:
[url]http://uploaded.net/file/lrtj7r50/Gangster.Squad.2013.720p.BLiNK.part1.rar[/url]
[url]http://uploaded.net/file/g8yw3i5j/Gangster.Squad.2013.720p.BLiNK.part2.rar[/url]
[url]http://uploaded.net/file/fmssn2zg/Gangster.Squad.2013.720p.BLiNK.part3.rar[/url]
[url]http://uploaded.net/file/blrahgxs/Gangster.Squad.2013.720p.BLiNK.part4.rar[/url]
[url]http://uploaded.net/file/aaejvqg5/Gangster.Squad.2013.720p.BLiNK.part5.rar[/url]
[url]http://uploaded.net/file/num1hgjn/Gangster.Squad.2013.720p.BLiNK.part6.rar[/url]
[url]http://uploaded.net/file/gim6jsok/Gangster.Squad.2013.720p.BLiNK.part7.rar[/url]

[url]http://rapidgator.net/file/df7510b9d640ad4bf284aece0f958601/Gangster.Squad.2013.720p.BLiNK.part1.rar.html[/url]
[url]http://rapidgator.net/file/7db0974d16e4ab3d9ce8047bd2882ed8/Gangster.Squad.2013.720p.BLiNK.part2.rar.html[/url]
[url]http://rapidgator.net/file/8eb9c661c73600ef2282f20b69e8fb88/Gangster.Squad.2013.720p.BLiNK.part3.rar.html[/url]
[url]http://rapidgator.net/file/f70e6e3bfdca434ade2516ba3bc1a53e/Gangster.Squad.2013.720p.BLiNK.part4.rar.html[/url]
[url]http://rapidgator.net/file/c4eeca194f0fac70183064e04660b83e/Gangster.Squad.2013.720p.BLiNK.part5.rar.html[/url]
[url]http://rapidgator.net/file/14400f02b711bb54386459933c71245f/Gangster.Squad.2013.720p.BLiNK.part6.rar.html[/url]
[url]http://rapidgator.net/file/50cbf15054d85c7a01d3e110ad1fa607/Gangster.Squad.2013.720p.BLiNK.part7.rar.html[/url]

[url]http://ryushare.com/eucf4yyk5ube/Gangster.Squad.2013.720p.BLiNK.part1.rar[/url]
[url]http://ryushare.com/gng3kxjeay9a/Gangster.Squad.2013.720p.BLiNK.part2.rar[/url]
[url]http://ryushare.com/dsj4sn9aracy/Gangster.Squad.2013.720p.BLiNK.part3.rar[/url]
[url]http://ryushare.com/op7eo5evv64h/Gangster.Squad.2013.720p.BLiNK.part4.rar[/url]
[url]http://ryushare.com/1yeeh5chnu5w/Gangster.Squad.2013.720p.BLiNK.part5.rar[/url]
[url]http://ryushare.com/jclsnfglzudb/Gangster.Squad.2013.720p.BLiNK.part6.rar[/url]
[url]http://ryushare.com/1cgnm1krfjfk/Gangster.Squad.2013.720p.BLiNK.part7.rar[/url]

[url]http://lumfile.com/kiy58656yclk/Gangster.Squad.2013.720p.BLiNK.part1.rar.html[/url]
[url]http://lumfile.com/cffh1th90pah/Gangster.Squad.2013.720p.BLiNK.part2.rar.html[/url]
[url]http://lumfile.com/ngidqhs9qbwj/Gangster.Squad.2013.720p.BLiNK.part3.rar.html[/url]
[url]http://lumfile.com/2ug8krefknw0/Gangster.Squad.2013.720p.BLiNK.part4.rar.html[/url]
[url]http://lumfile.com/tsorjkizh4go/Gangster.Squad.2013.720p.BLiNK.part5.rar.html[/url]
[url]http://lumfile.com/2syi9mxn70bk/Gangster.Squad.2013.720p.BLiNK.part6.rar.html[/url]
[url]http://lumfile.com/nyj4lbnsrkln/Gangster.Squad.2013.720p.BLiNK.part7.rar.html[/url]
 
Top