Šta je novo?

Game of Assassins The Gauntlet (2013)

Član
Učlanjen(a)
09.05.2011
Poruka
7.549
************************************************************
Game of Assassins The Gauntlet (2013) 720p WEBRip XviD AC3 FooKaS
File Size: 2.25 GiB

************************************************************

game.png


INFO:
Kod:
General
Complete name                            : G:\gaoff.avi
Format                                   : AVI
Format/Info                              : Audio Video Interleave
Format profile                           : OpenDML
File size                                : 2.25 GiB
Duration                                 : 1h 19mn
Overall bit rate                         : 4 052 Kbps
Writing application                      : Lavf51.12.1

Video
ID                                       : 0
Format                                   : AVC
Format/Info                              : Advanced Video Codec
Format profile                           : [email protected]
Format settings, CABAC                   : No
Format settings, ReFrames                : 1 frame
Format settings, GOP                     : M=1, N=12
Codec ID                                 : H264
Duration                                 : 1h 19mn
Bit rate                                 : 3 722 Kbps
Width                                    : 1 280 pixels
Height                                   : 720 pixels
Display aspect ratio                     : 2.35:1
Frame rate mode                          : Variable
Frame rate                               : 23.976 fps
Color space                              : YUV
Chroma subsampling                       : 4:2:0
Bit depth                                : 8 bits
Scan type                                : Progressive
Bits/(Pixel*Frame)                       : 0.168
Stream size                              : 2.07 GiB (92%)

Audio
ID                                       : 1
Format                                   : AC-3
Format/Info                              : Audio Coding 3
Mode extension                           : CM (complete main)
Format settings, Endianness              : Big
Codec ID                                 : 2000
Duration                                 : 1h 19mn
Bit rate mode                            : Constant
Bit rate                                 : 320 Kbps
Channel(s)                               : 6 channels
Channel positions                        : Front: L C R, Side: L R, LFE
Sampling rate                            : 48.0 KHz
Bit depth                                : 16 bits
Compression mode                         : Lossy
Stream size                              : 182 MiB (8%)
Alignment                                : Aligned on interleaves
Interleave, duration                     : 32 ms (0.77 video frame)
Interleave, preload duration             : 32 ms

iMDB:
Kod:
http://www.imdb.com/title/tt1067773/

vlcsnap-2014-09-18-10h48.png


vlcsnap-2014-09-18-10h48.png


vlcsnap-2014-09-18-10h49.png



Single Extraction | No Password | Interchangeable Links: | Working 100% |

Kod:
http://rapidgator.net/file/8ecff7c15966718541af813dfd9fe50b/The.Gauntlet.2013.720p.WEBRip.FooKaS.part1.rar.html
http://rapidgator.net/file/878b81fe67da5d3305c97333c16ffae0/The.Gauntlet.2013.720p.WEBRip.FooKaS.part2.rar.html
http://rapidgator.net/file/1400bef775a4725c583e3dd2ffdee9f4/The.Gauntlet.2013.720p.WEBRip.FooKaS.part3.rar.html
http://rapidgator.net/file/76edbd9d17ddc3d01250539107ddf3d8/The.Gauntlet.2013.720p.WEBRip.FooKaS.part4.rar.html

http://uploaded.net/file/9brngt57/The.Gauntlet.2013.720p.WEBRip.FooKaS.part1.rar
http://uploaded.net/file/ayozbom9/The.Gauntlet.2013.720p.WEBRip.FooKaS.part2.rar
http://uploaded.net/file/u5d4zwb5/The.Gauntlet.2013.720p.WEBRip.FooKaS.part3.rar
http://uploaded.net/file/874cu190/The.Gauntlet.2013.720p.WEBRip.FooKaS.part4.rar

http://xerver.co/fbo9ckd74fhn/The.Gauntlet.2013.720p.WEBRip.FooKaS.part1.rar
http://xerver.co/05typ157d645/The.Gauntlet.2013.720p.WEBRip.FooKaS.part2.rar
http://xerver.co/7cybinfpwwh4/The.Gauntlet.2013.720p.WEBRip.FooKaS.part3.rar
http://xerver.co/7pmwz4b77xj5/The.Gauntlet.2013.720p.WEBRip.FooKaS.part4.rar

https://www.oboom.com/B18PDYFF/The.Gauntlet.2013.720p.WEBRip.FooKaS.part1.rar
https://www.oboom.com/JRM2AZZQ/The.Gauntlet.2013.720p.WEBRip.FooKaS.part2.rar
https://www.oboom.com/CKJUXETT/The.Gauntlet.2013.720p.WEBRip.FooKaS.part3.rar
https://www.oboom.com/13VT9ZOZ/The.Gauntlet.2013.720p.WEBRip.FooKaS.part4.rar
 
Top