Šta je novo?
Član
Učlanjen(a)
09.05.2011
Poruka
7.549
Gambit (2012) 720p BluRay X264-AMIABLE
File Size: 4.37 GiB


gambitbluray.jpg


General
Complete name : Gambit.2012.720p.BluRay.X264-AMIABLE.mkv
Format : Matroska
Format version : Version 2
File size : 4.37 GiB
Duration : 1h 29mn
Overall bit rate : 7 019 Kbps
Writing application : x264.exe
Writing library : mkv2rls v1.4 (date: 2011 mar 29)

Video
ID : 1
Format : AVC
Format/Info : Advanced Video Codec
Format profile : [email protected]
Format settings, CABAC : Yes
Format settings, ReFrames : 5 frames
Codec ID : V_MPEG4/ISO/AVC
Duration : 1h 29mn
Bit rate : 5 506 Kbps
Width : 1 280 pixels
Height : 544 pixels
Display aspect ratio : 2.35:1
Frame rate mode : Constant
Frame rate : 23.976 fps
Color space : YUV
Chroma subsampling : 4:2:0
Bit depth : 8 bits
Scan type : Progressive
Bits/(Pixel*Frame) : 0.330
Stream size : 3.34 GiB (77%)
Writing library : x264 core 130 r2273 b3065e6
Language : English
Default : Yes
Forced : No

Audio
ID : 2
Format : DTS
Format/Info : Digital Theater Systems
Mode : 16
Format settings, Endianness : Big
Codec ID : A_DTS
Duration : 1h 29mn
Bit rate mode : Constant
Bit rate : 1 509 Kbps
Channel(s) : 6 channels
Channel positions : Front: L C R, Side: L R, LFE
Sampling rate : 48.0 KHz
Bit depth : 24 bits
Compression mode : Lossy
Stream size : 962 MiB (22%)
Language : English
Default : Yes
Forced : No

Text
ID : 3
Format : UTF-8
Codec ID : S_TEXT/UTF8
Codec ID/Info : UTF-8 Plain Text
Language : English
Default : No
Forced : No

Kod:
http://www.imdb.com/title/tt0404978/

gambit.jpg



DOWNLOAD:
Kod:
http://netload.in/dateiB7iV8XggQr/G1a2M3BiT.720p.AMiABLE.part1.rar.htm
http://netload.in/datei7C5UNWdwOL/G1a2M3BiT.720p.AMiABLE.part2.rar.htm
http://netload.in/dateiuV0qoQbjIi/G1a2M3BiT.720p.AMiABLE.part3.rar.htm
http://netload.in/dateimgsB3WPEN7/G1a2M3BiT.720p.AMiABLE.part4.rar.htm
http://netload.in/datei2BGZ9cG6R7/G1a2M3BiT.720p.AMiABLE.part5.rar.htm
 
Poslednja izmena od urednika:
Top