Šta je novo?

Gallowwalkers (2012)

Član
Učlanjen(a)
09.05.2011
Poruka
7.549
=
Gallowwalkers (2012) BRRip XviD Ac3 Feel-Free
File Size: 1,27 GiB

=

gallow.jpg



Format : AVI
Format/Info : Audio Video Interleave
File size : 1.26 GiB
Duration : 1h 32mn
Overall bit rate : 1 960 Kbps
Video
ID : 0
Format : MPEG-4 Visual
Format profile : Advanced [email protected]
Format settings, BVOP : 1
Format settings, QPel : No
Format settings, GMC : No warppoints
Format settings, Matrix : Default (H.263)
Codec ID : XVID
Codec ID/Hint : XviD
Duration : 1h 32mn
Bit rate : 1 567 Kbps
Width : 640 pixels
Height : 272 pixels
Display aspect ratio : 2.35:1
Frame rate : 23.976 fps
Color space : YUV
Chroma subsampling : 4:2:0
Bit depth : 8 bits
Scan type : Progressive
Compression mode : Lossy
Bits/(Pixel*Frame) : 0.375
Stream size : 1.01 GiB (80%)
Writing library : XviD 1.2.1 (UTC 2008-12-04)
Audio
ID : 1
Format : AC-3
Format/Info : Audio Coding 3
Mode extension : CM (complete main)
Codec ID : 2000
Duration : 1h 32mn
Bit rate mode : Constant
Bit rate : 384 Kbps
Channel(s) : 6 channels
Channel positions : Front: L C R, Side: L R, LFE
Sampling rate : 48.0 KHz
Bit depth : 16 bits
Compression mode : Lossy
Stream size : 253 MiB (20%)
Alignment : Aligned on interleaves
Interleave, duration : 42 ms (1.00 video frame)
Interleave, preload duration : 512 ms

Kod:
http://www.imdb.com/title/tt0829176/

gallowwalkers2012brripxv.jpg



DOWNLOAD:
Kod:
http://uploaded.net/file/v2t11c2i/GaLL0wWaLk3Rs.BRRip.Feel-Free.part1.rar
http://uploaded.net/file/nncb0bzq/GaLL0wWaLk3Rs.BRRip.Feel-Free.part2.rar
http://uploaded.net/file/x3yu8578/GaLL0wWaLk3Rs.BRRip.Feel-Free.part3.rar

http://rapidgator.net/file/c43f01b57f64b6a5a099c77d1ff6e738/GaLL0wWaLk3Rs.BRRip.Feel-Free.part1.rar.html
http://rapidgator.net/file/63246020a32d68bcab2866ee4642b58a/GaLL0wWaLk3Rs.BRRip.Feel-Free.part2.rar.html
http://rapidgator.net/file/f458f5a7969111d2649c9b60dba93fc6/GaLL0wWaLk3Rs.BRRip.Feel-Free.part3.rar.html

http://ryushare.com/2xjq53gbxb2a/GaLL0wWaLk3Rs.BRRip.Feel-Free.part1.rar
http://ryushare.com/q3rdjpqaiva7/GaLL0wWaLk3Rs.BRRip.Feel-Free.part2.rar
http://ryushare.com/ery6x2u81o41/GaLL0wWaLk3Rs.BRRip.Feel-Free.part3.rar

http://lumfile.com/1yvj6je1hlqh/GaLL0wWaLk3Rs.BRRip.Feel-Free.part1.rar.html
http://lumfile.com/shcr5t6w73tq/GaLL0wWaLk3Rs.BRRip.Feel-Free.part2.rar.html
http://lumfile.com/sy6y0weji94z/GaLL0wWaLk3Rs.BRRip.Feel-Free.part3.rar.html
 
Poslednja izmena od urednika:
Član
Učlanjen(a)
09.05.2011
Poruka
7.549
=
Gallowwalkers (2012) DVDRip x264-NoRBiT
File Size: 1,46 GiB

=

gallow.jpg



General
Complete name : Gallowwalkers.2012.DVDRip.x264-NoRBiT.mkv
Format : Matroska
Format version : Version 2
File size : 1.46 GiB
Duration : 1h 32mn
Overall bit rate : 2 256 Kbps
Writing application : HandBrake 0.9.8
Writing library : libmkv 0.6.5

Video
ID : 1
Format : AVC
Format/Info : Advanced Video Codec
Format profile : [email protected]
Format settings, CABAC : Yes
Format settings, ReFrames : 9 frames
Codec ID : V_MPEG4/ISO/AVC
Duration : 1h 32mn
Bit rate : 1 800 Kbps
Width : 720 pixels
Height : 304 pixels
Display aspect ratio : 2.35:1
Frame rate mode : Constant
Frame rate : 23.976 fps
Color space : YUV
Chroma subsampling : 4:2:0
Bit depth : 8 bits
Scan type : Progressive
Bits/(Pixel*Frame) : 0.343
Stream size : 1.14 GiB (78%)
Writing library : x264 core 120
Language : English
Default : Yes
Forced : No
Color primaries : BT.601 NTSC
Transfer characteristics : BT.709
Matrix coefficients : BT.601

Audio
ID : 2
Format : AC-3
Format/Info : Audio Coding 3
Mode extension : CM (complete main)
Format settings, Endianness : Big
Codec ID : A_AC3
Duration : 1h 32mn
Bit rate mode : Constant
Bit rate : 448 Kbps
Channel(s) : 6 channels
Channel positions : Front: L C R, Side: L R, LFE
Sampling rate : 48.0 KHz
Bit depth : 16 bits
Compression mode : Lossy
Stream size : 297 MiB (20%)
Language : English
Default : Yes
Forced : No



Kod:
http://www.imdb.com/title/tt0829176/


gallow.jpg




DOWNLOAD:
Kod:
http://uploaded.net/file/uaigdc2c/Gall0wwaLk3rs.2012.DVDRip.NoRBiT.part1.rar
http://uploaded.net/file/njsu9bao/Gall0wwaLk3rs.2012.DVDRip.NoRBiT.part2.rar
http://uploaded.net/file/8dyhhmi0/Gall0wwaLk3rs.2012.DVDRip.NoRBiT.part3.rar
http://uploaded.net/file/cn6zopue/Gall0wwaLk3rs.2012.DVDRip.NoRBiT.part4.rar

http://rapidgator.net/file/aa42ea7d36551066414d872e15804cef/Gall0wwaLk3rs.2012.DVDRip.NoRBiT.part1.rar.html
http://rapidgator.net/file/26739a829fb6df1c0523734168b8ede7/Gall0wwaLk3rs.2012.DVDRip.NoRBiT.part2.rar.html
http://rapidgator.net/file/5e63ac50a964dd38d3c944ae0919f27f/Gall0wwaLk3rs.2012.DVDRip.NoRBiT.part3.rar.html
http://rapidgator.net/file/2568d2cce7f9399f7a8a9d93991286bb/Gall0wwaLk3rs.2012.DVDRip.NoRBiT.part4.rar.html

http://ryushare.com/b014038e6b1/Gall0wwaLk3rs.2012.DVDRip.NoRBiT.part1.rar
http://ryushare.com/bea14ddea9e/Gall0wwaLk3rs.2012.DVDRip.NoRBiT.part2.rar
http://ryushare.com/a186b93d288/Gall0wwaLk3rs.2012.DVDRip.NoRBiT.part3.rar
http://ryushare.com/a186b93d287/Gall0wwaLk3rs.2012.DVDRip.NoRBiT.part4.rar

http://lumfile.com/0zasqpqu22t2/Gall0wwaLk3rs.2012.DVDRip.NoRBiT.part1.rar.html
http://lumfile.com/ljsz9pqi3dd2/Gall0wwaLk3rs.2012.DVDRip.NoRBiT.part2.rar.html
http://lumfile.com/jetp06z7dft4/Gall0wwaLk3rs.2012.DVDRip.NoRBiT.part3.rar.html
http://lumfile.com/nxb1ln4cekka/Gall0wwaLk3rs.2012.DVDRip.NoRBiT.part4.rar.html
 
Poslednja izmena od urednika:
Član
Učlanjen(a)
21.01.2013
Poruka
1.111
Gallowwalkers (2012) BRRip DTS x264-By Worldwide7477

af7f8356b4a53900c6f59bce8d99c6cb.jpg


Gallowwalkers (2012) BRRip DTS x264-Worldwide7477
Language: English
1h 32mn | 1280 x 544 | x264 - 2 926 Kbps | 23.976 fps | DTS - 755 Kbps | 2.42 GiB
Genre: Action | Fantasy | Horror | Thriller | Western
Kod:
http://www.imdb.com/title/tt0829176/
A mysterious gunman, Aman, is the son of a nun who breaks her covenant with God to ensure his survival. This act brings a curse upon Aman - all those that die by his gun will return. Soon, he is hunted by a gang of his undead former victims, led by the vicious Kansa. Aman enlists Fabulos, a new young warrior, to fight by his side.




Screenshot:
995f7ec8ef8fd42c2e40c77307be9896.jpg





DOWNLOAD
Kod:
[Rapidgator]
http://rapidgator.net/file/c411eeac2f485d848dd8da704c510b3b/Gallowwalkers.2012.BRRip.DTS.x264Worldwide7477.part1.rar.html
http://rapidgator.net/file/a2862a0834edea50c3dbe75525737cc3/Gallowwalkers.2012.BRRip.DTS.x264Worldwide7477.part2.rar.html
http://rapidgator.net/file/894da3ea55b57592a7affce48dd0f3b5/Gallowwalkers.2012.BRRip.DTS.x264Worldwide7477.part3.rar.html

[Uploaded]
http://uploaded.net/file/9jkoi5di/Gallowwalkers.2012.BRRip.DTS.x264Worldwide7477.part1.rar
http://uploaded.net/file/92mechug/Gallowwalkers.2012.BRRip.DTS.x264Worldwide7477.part2.rar
http://uploaded.net/file/hexj9qqy/Gallowwalkers.2012.BRRip.DTS.x264Worldwide7477.part3.rar

[Secureupload]
http://www.secureupload.eu/segd5z4p3yw0/Gallowwalkers.2012.BRRip.DTS.x264Worldwide7477.part1.rar
http://www.secureupload.eu/7wcx0xsmzoml/Gallowwalkers.2012.BRRip.DTS.x264Worldwide7477.part2.rar
http://www.secureupload.eu/bugkewb89jlj/Gallowwalkers.2012.BRRip.DTS.x264Worldwide7477.part3.rar
 
Top