Šta je novo?

G.I. Joe: Retaliation (2013)

Član
Učlanjen(a)
09.05.2011
Poruka
7.549
=
G I Joe Retaliation (2013) DVDRip X264 AAC BiTo
File Size: 1,25 GiB

=

gijoe.jpg



ID : 1
Format : AVC
Format/Info : Advanced Video Codec
Format profile : [email protected]
Format settings, CABAC : Yes
Format settings, ReFrames : 4 frames
Codec ID : V_MPEG4/ISO/AVC
Duration : 1h 45mn
Bit rate : 1 200 Kbps
Width : 720 pixels
Height : 288 pixels
Display aspect ratio : 2.40:1
Frame rate mode : Constant
Frame rate : 25.000 fps
Color space : YUV
Chroma subsampling : 4:2:0
Bit depth : 8 bits
Scan type : Progressive
Bits/(Pixel*Frame) : 0.231
Stream size : 879 MiB (71%)
Writing library : x264 core 125

Audio
ID : 2
Format : AC-3
Format/Info : Audio Coding 3
Mode extension : CM (complete main)
Format settings, Endianness : Big
Codec ID : A_AC3
Duration : 1h 45mn
Bit rate mode : Constant
Bit rate : 448 Kbps
Channel(s) : 6 channels
Channel positions : Front: L C R, Side: L R, LFE
Sampling rate : 48.0 KHz
Bit depth : 16 bits
Compression mode : Lossy
Stream size : 339 MiB (27%)
Language : English
Default : Yes
Forced : No

Kod:
http://www.imdb.com/title/tt1583421/

kobra1.png


kobra2.png


kobra3.png



DOWNLOAD:
Kod:
http://uploaded.net/file/hrz60r4y/R3taliatioN.DVDRip.x264.BiTo.part1.rar
http://uploaded.net/file/idvgm2s2/R3taliatioN.DVDRip.x264.BiTo.part2.rar
http://uploaded.net/file/xrjs3331/R3taliatioN.DVDRip.x264.BiTo.part3.rar

http://rapidgator.net/file/1552b0fdc12f9b26d5331a99d513246b/R3taliatioN.DVDRip.x264.BiTo.part1.rar.html
http://rapidgator.net/file/e549b8f00a75d82e1e6f73e27b685c34/R3taliatioN.DVDRip.x264.BiTo.part2.rar.html
http://rapidgator.net/file/0f2dd04cf7892910073bc81136be8c72/R3taliatioN.DVDRip.x264.BiTo.part3.rar.html

http://netload.in/dateiey4C6modvZ/R3taliatioN.DVDRip.x264.BiTo.part1.rar.htm
http://netload.in/datei0QrNDKqwgr/R3taliatioN.DVDRip.x264.BiTo.part2.rar.htm
http://netload.in/dateiTnPIckSxjr/R3taliatioN.DVDRip.x264.BiTo.part3.rar.htm

http://lumfile.com/9z8j9u01irhp/R3taliatioN.DVDRip.x264.BiTo.part1.rar.html
http://lumfile.com/w6tc57jwib6d/R3taliatioN.DVDRip.x264.BiTo.part2.rar.html
http://lumfile.com/kyuus7hrfy29/R3taliatioN.DVDRip.x264.BiTo.part3.rar.html
 
Poslednja izmena od urednika:
MODERATOR
Učlanjen(a)
10.10.2009
Poruka
13.297
gi_joe_retaliation_French_poster.jpg


G.I.Joe.Retaliation.2013.Extended.Action.Cut.BRrip.x264.by.Wolf

G.I. Joe: Retaliation (2013)

Kod:
http://www26.zippyshare.com/v/24141670/file.html
http://www67.zippyshare.com/v/83211403/file.html
http://www65.zippyshare.com/v/20642586/file.html
http://www48.zippyshare.com/v/99641328/file.html

y5g.png

 
Član
Učlanjen(a)
08.09.2009
Poruka
1.437
G.I.Joe.Retaliation.2013.DVD5.RETAIL-SAM

80326889675298596997.jpg


Source............: RETAIL
Formaat...........: DVD5 / ISO
Video.............: PAL / 16:9
Audio.............: Dolby Digital 5.1, DTS
Genre.............: Action / Adventure / Sci-Fi
Subs..............: Dutch
Menu..............: Yes
Year..............: 2013
Cover & label.....: Yes
Audio.............: Englisch
Runtime...........: 110 minutes
Kod:
http://www.imdb.com/title/tt1583421/

The G.I. Joes are not only fighting their mortal enemy Cobra,
they are forced to contend with threats from within the
government that jeopardize their very existence.

Kod:
http://uploaded.net/file/an3e1v5t/G..Joe.Re.part3.rar
http://uploaded.net/file/l3e1iuho/G..Joe.Re.part1.rar
http://uploaded.net/file/xkdst3li/G..Joe.Re.part2.rar
 
Top