Šta je novo?

Frozen 2 aka Залеђено краљевство 2 (2019)

  • Začetnik teme simark
  • Datum pokretanja
S

simark

Učlanjen(a)
05.09.2009
Poruka
196
Залеђено краљевство 2 НОВ ЗВУК
на српском језику НОВ ЗВУК
Frozen 2 serb. new sound

Ево најзад новог доброг српског ЗВУКА, заједно са новим снимком више резолуције.
Због садашње ситуације биће још ускоро фимова, држ`те се људи, велики и мали...





Complete name : Залеђено краљевство 2 нов- Frozen.2.2019.720p.BluRay.890MB.x264.Dual-simark.mkv

File size : 891 MiB
Duration : 1 h 43 min

Video
Codec ID : V_MPEG4/ISO/AVC
Bit rate : 979 kb/s
Width : 1 280 pixels
Height : 544 pixels
Display aspect ratio : 2.40:1
Frame rate : 23.976 FPS
Stream size : 723 MiB (81%)
Writing library : x264 core 148 r2748 97eaef2

Audio #1
Codec ID : A_AAC-2
Bit rate : 128 kb/s
Channel(s) : 2 channels
Sampling rate : 48.0 kHz
Stream size : 94.9 MiB (11%)
Language : Serbian

Audio #2
Codec ID : A_AAC-2
Bit rate : 96.0 kb/s
Channel(s) : 2 channels
Sampling rate : 48.0 kHz
Stream size : 71.2 MiB (8%)
Language : English



Hidden content
You need to react to this post in order to see this content.
Нема шифре, линк замењен...
 
Poslednja izmena:
S

simark

Učlanjen(a)
05.09.2009
Poruka
196
Ево да поставим линк за други пост на молбу MilanGM.
Бољи звук и већа резолуција него у првом посту:

Kod:
https://uptobox.com/axfcbmvwvpzf
Поздрав Милану...
 
S

simark

Učlanjen(a)
05.09.2009
Poruka
196


НОВИ линк за нови СРПСКИ ЗВУК у првом посту, бољи и од другог поста.
За другим постом нема више потребе па ће линк брзо престати да важи.
 
katamaniak

katamaniak

UREDNIK
Učlanjen(a)
24.03.2015
Poruka
4.390
Zaleđeno Kraljevstvo 2 (2019) dual audio srpski / Engleski


















Hidden content
You need to react to this post in order to see this content.





Frozen.2.2019.720p.BluRay.890MB.x264.Dual-simark.mkv




Crtać sam "pozajmila" sa drugog foruma og kolege Simarka,jer je vladalo veliko interesovanje,ako hoće,nek posta svoj link,ja ću srediti da post bude njegov (iskreno,ne volim da og kolega "kradem" crtaće i ostale filmove),pozdrav od KataManiak sa drugog foruma



 
Poslednja izmena:
Top