Šta je novo?

Formula 1 - Sezone 2016

  • Začetnik teme Mihajlo
  • Datum pokretanja
Mihajlo

Mihajlo

__John__Wayne__
LEGEND
Učlanjen(a)
26.09.2009
Poruka
7.371
Mihajlo

Mihajlo

__John__Wayne__
LEGEND
Učlanjen(a)
26.09.2009
Poruka
7.371
FORMULA 1 ROLEX AUSTRALIAN GRAND PRIX (18 – 20 Mar 2016)


Formula 1 - Round 1 - Australian Grand Prix - 19/03/2016
Qualifying


channel: Sky Sports F1 HD
language: english
format: 720p ts
bitrate: 2200kbps
size: 1,3 GB








Hidden content
You need to react to this post in order to see this content.
 
Mihajlo

Mihajlo

__John__Wayne__
LEGEND
Učlanjen(a)
26.09.2009
Poruka
7.371
Formula 1 - Round 1 - Australian Grand Prix - 20/03/2016
Race


channel: Sky Sports 1 HD
language: english
format: 720p ts
bitrate: 2200kbps
size: 2,3 GB








Hidden content
You need to react to this post in order to see this content.
 
Mihajlo

Mihajlo

__John__Wayne__
LEGEND
Učlanjen(a)
26.09.2009
Poruka
7.371
FORMULA 1 GULF AIR BAHRAIN GRAND PRIX (01 – 03 Apr 2016)

Formula 1 - Round 2 - Bahrein Grand Prix - 02/04/2016
Qualifying


channel: Sky Sports F1 HD
language: english
format: 720p ts
bitrate: 4500kbps
size: 2,5 GB








Hidden content
You need to react to this post in order to see this content.
 
Mihajlo

Mihajlo

__John__Wayne__
LEGEND
Učlanjen(a)
26.09.2009
Poruka
7.371
Formula 1 - Round 2 - Bahrein Grand Prix - 03/04/2016
Race


channel: Sky Sports F1 HD
language: english
format: 720p ts
bitrate: 4500kbps
size: 3,6 GB












Hidden content
You need to react to this post in order to see this content.
 
katamaniak

katamaniak

UREDNIK
Učlanjen(a)
24.03.2015
Poruka
4.715



Format : MPEG-TS
Language : Spanish
Overall bit rate mode : Variable
Overall bit rate : 2 326 Kbps

Video
Format : AVC
Width : 960 pixels
Height : 540 pixels
Display aspect ratio : 16:9
Frame rate : 25.000 fps

Audio
Bit rate : 96.0 Kbps
Channel count : 2 channels
Sampling rate : 44.1 KHz

1.70 GB



Hidden content
You need to react to this post in order to see this content.
 
katamaniak

katamaniak

UREDNIK
Učlanjen(a)
24.03.2015
Poruka
4.715



Channel : Sky Sports F1 HD
Resolution : 1280x720
Bitrate : 4200 Kbps
Format : MKV
Size : 3.75 GB
Language :English




Full Race & Trophy Celebration

Hidden content
You need to react to this post in order to see this content.
 
katamaniak

katamaniak

UREDNIK
Učlanjen(a)
24.03.2015
Poruka
4.715




Ripper: djflakf1
Lenguage: Español Latino
Canal: Fox Sports
Resolution: 854x480
Bitrate: 1200 Kbps

370.8 MB


Hidden content
You need to react to this post in order to see this content.
 
floyd29

floyd29

Član
Učlanjen(a)
03.10.2012
Poruka
1.152
Formula 1 2016x15 Singapore Qualifying SkyF1HD



Video
ID : 1
Format : AVC
Format/Info : Advanced Video Codec
Format profile : [email protected]
Format settings, CABAC : Yes
Format settings, ReFrames : 4 frames
Codec ID : avc1
Codec ID/Info : Advanced Video Coding
Duration : 55mn 2s
Bit rate : 986 Kbps
Width : 640 pixels
Height : 360 pixels
Display aspect ratio : 16:9
Frame rate mode : Constant
Frame rate : 25.000 fps
Color space : YUV
Chroma subsampling : 4:2:0
Bit depth : 8 bits
Scan type : Progressive
Bits/(Pixel*Frame) : 0.171
Stream size : 388 MiB (88%)
Writing library : x264 core 142 r2479 dd79a61
Encoding settings : cabac=1 / ref=3 / deblock=1:0:0 / analyse=0x3:0x113 / me=hex / subme=7 / psy=1 / psy_rd=1.00:0.00 / mixed_ref=1 / me_range=16 / chroma_me=1 / trellis=1 / 8x8dct=1 / cqm=0 / deadzone=21,11 / fast_pskip=1 / chroma_qp_offset=-2 / threads=12 / lookahead_threads=2 / sliced_threads=0 / nr=0 / decimate=1 / interlaced=0 / bluray_compat=0 / constrained_intra=0 / bframes=3 / b_pyramid=2 / b_adapt=1 / b_bias=0 / direct=1 / weightb=1 / open_gop=0 / weightp=2 / keyint=250 / keyint_min=25 / scenecut=40 / intra_refresh=0 / rc_lookahead=40 / rc=crf / mbtree=1 / crf=20.0 / qcomp=0.60 / qpmin=0 / qpmax=69 / qpstep=4 / vbv_maxrate=25000 / vbv_bufsize=31250 / crf_max=0.0 / nal_hrd=none / filler=0 / ip_ratio=1.40 / aq=1:1.00
Encoded date : UTC 2016-09-17 13:00:34
Tagged date : UTC 2016-09-17 13:00:34
Color range : Limited
Color primaries : BT.709
Transfer characteristics : BT.709
Matrix coefficients : BT.709

Audio
ID : 2
Format : AAC
Format/Info : Advanced Audio Codec
Format profile : LC
Codec ID : 40
Duration : 55mn 2s
Bit rate mode : Variable
Bit rate : 128 Kbps
Channel(s) : 2 channels
Channel positions : Front: L R
Sampling rate : 44.1 KHz
Frame rate : 43.066 fps (1024 spf)
Compression mode : Lossy
Stream size : 50.4 MiB (11%)
Title : Eng / Eng
Language : English
Default : Yes
Alternate group : 1







Kod:
http://uploaded.net/file/wb2hh78t/Formula.1.2016x15.Singapore.Qualifying.SkyF1HD.SD.part2.rar
http://uploaded.net/file/h5q8h63x/Formula.1.2016x15.Singapore.Qualifying.SkyF1HD.SD.part1.rar
http://uploaded.net/file/c4h0k4zv/Formula.1.2016x15.Singapore.Qualifying.SkyF1HD.SD.part3.rar
http://uploaded.net/file/mb8i49mw/Formula.1.2016x15.Singapore.Qualifying.SkyF1HD.SD.part4.rar

http://rapidgator.net/file/1f6bdfd5c48f157ded154bec6af56af8/Formula.1.2016x15.Singapore.Qualifying.SkyF1HD.SD.part1.rar.html
http://rapidgator.net/file/ff68f7f7532154a8c8e80cfbef4b4514/Formula.1.2016x15.Singapore.Qualifying.SkyF1HD.SD.part2.rar.html
http://rapidgator.net/file/22abf80e7a4fb1bc499163b81915ee79/Formula.1.2016x15.Singapore.Qualifying.SkyF1HD.SD.part3.rar.html
http://rapidgator.net/file/85980bd86361223a67d92af8fea5cdc2/Formula.1.2016x15.Singapore.Qualifying.SkyF1HD.SD.part4.rar.html

https://userscloud.com/4yh2es5fxm87/Formula.1.2016x15.Singapore.Qualifying.SkyF1HD.SD.part1.rar
https://userscloud.com/k8fcfgo5kjvl/Formula.1.2016x15.Singapore.Qualifying.SkyF1HD.SD.part2.rar
https://userscloud.com/x4l3a8yne5sq/Formula.1.2016x15.Singapore.Qualifying.SkyF1HD.SD.part3.rar
https://userscloud.com/yf9l9q0y51xw/Formula.1.2016x15.Singapore.Qualifying.SkyF1HD.SD.part4.rar

http://www.filefactory.com/file/36g80r5k9vnd/Formula.1.2016x15.Singapore.Qualifying.SkyF1HD.SD.part4.rar
http://www.filefactory.com/file/70pobnew2d9v/Formula.1.2016x15.Singapore.Qualifying.SkyF1HD.SD.part2.rar
http://www.filefactory.com/file/2dnzy19qm5vf/Formula.1.2016x15.Singapore.Qualifying.SkyF1HD.SD.part3.rar
http://www.filefactory.com/file/1ric5o19gpwv/Formula.1.2016x15.Singapore.Qualifying.SkyF1HD.SD.part1.rar
 
floyd29

floyd29

Član
Učlanjen(a)
03.10.2012
Poruka
1.152
Formula 1 2016x15 Singapore Practice Three SkyF1HD 720p50







Video
ID : 1
Format : AVC
Format/Info : Advanced Video Codec
Format profile : [email protected]
Format settings, CABAC : Yes
Format settings, ReFrames : 4 frames
Codec ID : avc1
Codec ID/Info : Advanced Video Coding
Duration : 55mn 2s
Bit rate : 2 584 Kbps
Width : 1 280 pixels
Height : 720 pixels
Display aspect ratio : 16:9
Frame rate mode : Constant
Frame rate : 50.000 fps
Color space : YUV
Chroma subsampling : 4:2:0
Bit depth : 8 bits
Scan type : Progressive
Bits/(Pixel*Frame) : 0.056
Stream size : 1 017 MiB (91%)
Writing library : x264 core 142 r2479 dd79a61
Encoding settings : cabac=1 / ref=1 / deblock=1:0:0 / analyse=0x3:0x113 / me=hex / subme=2 / psy=1 / psy_rd=1.00:0.00 / mixed_ref=0 / me_range=16 / chroma_me=1 / trellis=0 / 8x8dct=1 / cqm=0 / deadzone=21,11 / fast_pskip=1 / chroma_qp_offset=0 / threads=24 / lookahead_threads=5 / sliced_threads=0 / nr=0 / decimate=1 / interlaced=0 / bluray_compat=0 / constrained_intra=0 / bframes=3 / b_pyramid=2 / b_adapt=1 / b_bias=0 / direct=1 / weightb=1 / open_gop=0 / weightp=1 / keyint=500 / keyint_min=50 / scenecut=40 / intra_refresh=0 / rc_lookahead=10 / rc=crf / mbtree=1 / crf=20.0 / qcomp=0.60 / qpmin=0 / qpmax=69 / qpstep=4 / vbv_maxrate=62500 / vbv_bufsize=78125 / crf_max=0.0 / nal_hrd=none / filler=0 / ip_ratio=1.40 / aq=1:1.00
Encoded date : UTC 2016-09-17 13:02:23
Tagged date : UTC 2016-09-17 13:02:23
Color range : Limited
Color primaries : BT.709
Transfer characteristics : BT.709
Matrix coefficients : BT.709

Audio
ID : 2
Format : AAC
Format/Info : Advanced Audio Codec
Format profile : LC
Codec ID : 40
Duration : 55mn 2s
Bit rate mode : Variable
Bit rate : 253 Kbps
Channel(s) : 2 channels
Channel positions : Front: L R
Sampling rate : 48.0 KHz
Frame rate : 46.875 fps (1024 spf)
Compression mode : Lossy
Stream size : 99.8 MiB (9%)
Title : Stereo / Stereo
Language : English
Default : Yes






Kod:
http://uploaded.net/file/5k6gzl6u/Formula1.2016.Singapore.Grand.Prix.Practice.Three.720p.HDTV.x264-AKATSUKi.%255BSRIGGA%255D.part1.rar
http://uploaded.net/file/wf456or5/Formula1.2016.Singapore.Grand.Prix.Practice.Three.720p.HDTV.x264-AKATSUKi.%255BSRIGGA%255D.part2.rar
http://uploaded.net/file/1qamb6bd/Formula1.2016.Singapore.Grand.Prix.Practice.Three.720p.HDTV.x264-AKATSUKi.%255BSRIGGA%255D.part4.rar
http://uploaded.net/file/qz33sjtf/Formula1.2016.Singapore.Grand.Prix.Practice.Three.720p.HDTV.x264-AKATSUKi.%255BSRIGGA%255D.part3.rar
http://uploaded.net/file/4h8620dh/Formula1.2016.Singapore.Grand.Prix.Practice.Three.720p.HDTV.x264-AKATSUKi.%255BSRIGGA%255D.part5.rar

http://rapidgator.net/file/6e7a17dddfe30cf7d819f2e73346eb47/Formula1.2016.Singapore.Grand.Prix.Practice.Three.720p.HDTV.x264-AKATSUKi.[SRIGGA].part3.rar.html
http://rapidgator.net/file/97c238713337c532cdf08778e99cc145/Formula1.2016.Singapore.Grand.Prix.Practice.Three.720p.HDTV.x264-AKATSUKi.[SRIGGA].part2.rar.html
http://rapidgator.net/file/60192c17cce84ec431ad202d5eef0555/Formula1.2016.Singapore.Grand.Prix.Practice.Three.720p.HDTV.x264-AKATSUKi.[SRIGGA].part1.rar.html
http://rapidgator.net/file/fc8d64d677532ccff8ee8ab4db17422b/Formula1.2016.Singapore.Grand.Prix.Practice.Three.720p.HDTV.x264-AKATSUKi.[SRIGGA].part4.rar.html
http://rapidgator.net/file/a9d07dc9afb4e2a7f421ede13a5c88bd/Formula1.2016.Singapore.Grand.Prix.Practice.Three.720p.HDTV.x264-AKATSUKi.[SRIGGA].part5.rar.html

https://userscloud.com/4xiw1ahd5wnt/Formula1.2016.Singapore.Grand.Prix.Practice.Three.720p.HDTV.x264-AKATSUKi._5BSRIGGA_5D.part1.rar
https://userscloud.com/g9neddwptx8s/Formula1.2016.Singapore.Grand.Prix.Practice.Three.720p.HDTV.x264-AKATSUKi._5BSRIGGA_5D.part2.rar
https://userscloud.com/hszdfwb0080h/Formula1.2016.Singapore.Grand.Prix.Practice.Three.720p.HDTV.x264-AKATSUKi._5BSRIGGA_5D.part3.rar
https://userscloud.com/r7aewugfshfj/Formula1.2016.Singapore.Grand.Prix.Practice.Three.720p.HDTV.x264-AKATSUKi._5BSRIGGA_5D.part4.rar
https://userscloud.com/rbbzkwwzdckr/Formula1.2016.Singapore.Grand.Prix.Practice.Three.720p.HDTV.x264-AKATSUKi._5BSRIGGA_5D.part5.rar

http://www.filefactory.com/file/69xn0tzs6nsb/Formula1.2016.Singapore.Grand.Prix.Practice.Three.720p.HDTV.x264-AKATSUKi.%255BSRIGGA%255D.part2.rar
http://www.filefactory.com/file/13eec89bulan/Formula1.2016.Singapore.Grand.Prix.Practice.Three.720p.HDTV.x264-AKATSUKi.%255BSRIGGA%255D.part5.rar
http://www.filefactory.com/file/5y61pcj2qns5/Formula1.2016.Singapore.Grand.Prix.Practice.Three.720p.HDTV.x264-AKATSUKi.%255BSRIGGA%255D.part1.rar
http://www.filefactory.com/file/3t2jmcgop5p9/Formula1.2016.Singapore.Grand.Prix.Practice.Three.720p.HDTV.x264-AKATSUKi.%255BSRIGGA%255D.part3.rar
http://www.filefactory.com/file/6yarbhewspfh/Formula1.2016.Singapore.Grand.Prix.Practice.Three.720p.HDTV.x264-AKATSUKi.%255BSRIGGA%255D.part4.rar
 
Top