Šta je novo?
MODERATOR
Učlanjen(a)
10.10.2009
Poruka
13.322
Ferdinand (2017) 720p BRrip x264 by Wolf
(MKV)

5oCRMTF.jpg


Kod:
 http://www.imdb.com/title/tt3411444/

General
Unique ID : 339205620384989974889625529933882182418 (0xFF30A04C0C1DC7518933BAC66D6FCB12)
Complete name : Ferdinand.2017.720p.BRrip.x264.by.Wolf.mkv
Format : Matroska
Format version : Version 4 / Version 2
File size : 1.40 GiB
Duration : 1 h 48 min
Overall bit rate : 1 858 kb/s
Encoded date : UTC 2018-02-28 12:51:35 / UTC 2018-02-27T13:06:50Z
Writing application : mkvmerge v19.0.0 ('Brave Captain') 64-bit
Writing library : libebml v1.3.5 + libmatroska v1.4.8 / Lavf57.7.2

Video
ID : 1
Format : AVC
Format/Info : Advanced Video Codec
Format profile : High@L5.1
Format settings : CABAC / 4 Ref Frames
Format settings, CABAC : Yes
Format settings, ReFrames : 4 frames
Codec ID : V_MPEG4/ISO/AVC
Duration : 1 h 48 min
Bit rate : 1 600 kb/s
Width : 1 280 pixels
Height : 536 pixels
Display aspect ratio : 2.40:1
Frame rate mode : Constant
Frame rate : 23.976 (24000/1001) FPS
Color space : YUV
Chroma subsampling : 4:2:0
Bit depth : 8 bits
Scan type : Progressive
Bits/(Pixel*Frame) : 0.097
Stream size : 1.18 GiB (84%)
Title : Ferdinand (2017)
Writing library : x264 core 148 r2708 86b7198
Encoding settings : cabac=1 / ref=2 / deblock=1:0:0 / analyse=0x3:0x113 / me=hex / subme=4 / psy=1 / psy_rd=1.00:0.00 / mixed_ref=0 / me_range=16 / chroma_me=1 / trellis=1 / 8x8dct=1 / cqm=0 / deadzone=21,11 / fast_pskip=1 / chroma_qp_offset=0 / threads=3 / lookahead_threads=1 / sliced_threads=0 / nr=0 / decimate=1 / interlaced=0 / bluray_compat=0 / constrained_intra=0 / bframes=3 / b_pyramid=2 / b_adapt=1 / b_bias=0 / direct=1 / weightb=1 / open_gop=0 / weightp=1 / keyint=240 / keyint_min=24 / scenecut=40 / intra_refresh=0 / rc_lookahead=20 / rc=2pass / mbtree=1 / bitrate=1600 / ratetol=1.0 / qcomp=0.60 / qpmin=0 / qpmax=69 / qpstep=4 / cplxblur=20.0 / qblur=0.5 / vbv_maxrate=300000 / vbv_bufsize=300000 / nal_hrd=none / filler=0 / ip_ratio=1.40 / aq=1:1.00
Language : English
Default : Yes
Forced : No
Color range : Limited
Color primaries : BT.709
Transfer characteristics : BT.709
Matrix coefficients : BT.709
Statistics Tags Issue : mkvmerge v19.0.0 ('Brave Captain') 64-bit 2018-02-28 12:51:35 / mkvmerge v19.0.0 ('Brave Captain') 64-bit 2018-02-28 12:51:35 / UTC 2018-02-27T13:06:50Z
FromStats_BitRate : 1599898
FromStats_Duration : 01:48:05.563000000
FromStats_FrameCount : 155498
FromStats_StreamSize : 1297030125

Audio
ID : 2
Format : E-AC-3
Format/Info : Enhanced Audio Coding 3
Codec ID : A_EAC3
Duration : 1 h 48 min
Bit rate mode : Constant
Bit rate : 256 kb/s
Channel(s) : 6 channels
Channel positions : Front: L C R, Side: L R, LFE
Sampling rate : 48.0 kHz
Frame rate : 187.500 FPS (256 SPF)
Compression mode : Lossy
Delay relative to video : -21 ms
Stream size : 198 MiB (14%)
Title : Ferdinand (2017)
Language : English
Service kind : Complete Main
Default : Yes
Forced : No
Statistics Tags Issue : mkvmerge v19.0.0 ('Brave Captain') 64-bit 2018-02-28 12:51:35 / mkvmerge v19.0.0 ('Brave Captain') 64-bit 2018-02-28 12:51:35 / UTC 2018-02-27T13:06:50Z
FromStats_BitRate : 256000
FromStats_Duration : 01:48:05.600000000
FromStats_FrameCount : 202675
FromStats_StreamSize : 207539200

Text
ID : 3
Format : UTF-8
Codec ID : S_TEXT/UTF8
Codec ID/Info : UTF-8 Plain Text
Title : Ferdinand (2017)
Language : Croatian
Default : Yes
Forced : No
Statistics Tags Issue : mkvmerge v19.0.0 ('Brave Captain') 64-bit 2018-02-28 12:51:35 / mkvmerge v19.0.0 ('Brave Captain') 64-bit 2018-02-28 12:51:35 / UTC 2018-02-27T13:06:50Z
FromStats_BitRate : 37
FromStats_Duration : 01:35:21.334000000
FromStats_FrameCount : 815
FromStats_StreamSize : 27071
zbNKcak.jpg

Hidden content
You need to react to this post in order to see this content.
7r3MRe6.png

D1K8bjR.jpg
 
Poslednja izmena:
Top