Šta je novo?

Fantastic journey to Oz aka Фантастично путовање у Оз (2017)

  • Začetnik teme simark
  • Datum pokretanja
S

simark

Učlanjen(a)
05.09.2009
Poruka
189
Фантастично путовање у Оз
на српском и руском језику
Fantastic journey to Oz
Урфин Джюс и его деревянные солдаты


Цртани на српском (и руском) језику скорије продукције. У обради и више резолуције.


Complete name : Фантастично путовање у Оз - Урфин Джюс и его деревянные солдаты - Fantastic Journey to OZ.WEB-DL.720p.2017.Dual-simark.mkv

File size : 798 MiB
Duration : 1 h 27 min

Video
Codec ID : V_MPEG4/ISO/AVC
Bit rate : 1 004 kb/s
Width : 1 280 pixels
Height : 536 pixels
Display aspect ratio : 2.40:1
Frame rate : 23.976 (24000/1001) FPS
Stream size : 619 MiB (77%)
Writing library : x264 core 142

Audio #1
Codec ID : A_AAC-2
Bit rate : 128 kb/s
Channel(s) : 2 channels
Sampling rate : 48.0 kHz
Stream size : 80.0 MiB (10%)
Language : Serbian

Audio #2
Codec ID : A_AAC-1
Bit rate : 156 kb/s
Channel(s) : 2 channels
Sampling rate : 48.0 kHz
Stream size : 97.8 MiB (12%)
Language : Russian


Hidden content
You need to react to this post in order to see this content.
Нема шифре...
 
Poslednja izmena:
Top