Šta je novo?
MODERATOR
Učlanjen(a)
02.05.2009
Poruka
30.185
Fantasia+2000+poster.jpg






General
Complete name : I:\Filmovi\Crtani,decij filmovi\Disney Movies\1999 - Fantasia 2000.avi
Format : AVI
Format/Info : Audio Video Interleave
File size : 874 MiB
Duration : 1h 14mn
Overall bit rate : 1 639 Kbps

Video
ID : 0
Format : MPEG-4 Visual
Format profile : Simple@L3
Format settings, BVOP : Yes
Format settings, QPel : No
Format settings, GMC : No warppoints
Format settings, Matrix : Default (H.263)
Codec ID : XVID
Codec ID/Hint : XviD
Duration : 1h 14mn
Bit rate : 1 498 Kbps
Width : 640 pixels
Height : 360 pixels
Display aspect ratio : 16:9
Frame rate : 29.970 fps
Color space : YUV
Chroma subsampling : 4:2:0
Bit depth : 8 bits
Scan type : Progressive
Compression mode : Lossy
Bits/(Pixel*Frame) : 0.217
Stream size : 798 MiB (91%)

Audio
ID : 1
Format : MPEG Audio
Format version : Version 1
Format profile : Layer 3
Mode : Joint stereo
Mode extension : MS Stereo
Codec ID : 55
Codec ID/Hint : MP3
Duration : 1h 14mn
Bit rate mode : Constant
Bit rate : 128 Kbps
Channel(s) : 2 channels
Sampling rate : 44.1 KHz
Compression mode : Lossy
Stream size : 68.2 MiB (8%)
Alignment : Aligned on interleaves
Interleave, duration : 26 ms (0.78 video frame)
Writing library : LAME3.97



Fantasia 2000 (1999) - IMDb





Kod:
http://www.netload.in/datei8of88k7AJy/2000.-.Fantasia.2000.rar.htm
 
Poslednja izmena:
MODERATOR
Učlanjen(a)
02.05.2009
Poruka
30.185
Fantasia+2000+poster.jpg





In this update of Disney's masterpiece film mixture of animation and music, new interpretations of great works of music are presented. It begins with an abstract battle of light and darkness set to the music of Beethoveen's Fifth Symphony. Then we see the adventures of a Humpback Whale calf and his pod set to "The Pines of Rome." Next is the humourous story of several lives in 1930's New York City, scored with "Rhapsody in Blue." Following is a musical telling of the fairy tale, "The Steadfast Tin Soldier" set to Dmitri Shostakovich's Piano Concerto No. 2. Then a goofy Flamingo causes havoc in his flock with his yo-yo to the tune of the finale of "Carnival of the Animals." This is followed by the classic sequence from the original film, "The Sorcerer's Apprentice" starring Mickey Mouse and followed by "Pomp and Circumstance" starring Donald Duck as a harried assistant to Noah on his Ark...




fantasia20001999dvdrip.jpg






Kod:
http://www.filefactory.com/file/3z6puh47acwf/n/Fantasia.2000.1999.DvDRip.avi

http://rapidgator.net/file/8025621/Fantasia.2000.1999.DvDRip.avi.html
 
Top