Šta je novo?
VIP IPTV
Učlanjen(a)
08.11.2012
Poruka
1.467
Falsifikator (2013) DVDRip XviD-daredule
+Uskladjen Slovenacki prevod (srt)

falsifikator2013.jpg


Žanr: Komedija / Drama
Režija: Goran Marković
Scenario: Goran Markovic, Tihomir Stanic
Glavne uloge: Tihomir Stanić, Branka Katić, Dragan Petrović, Sergej Trifunović, Haris Burina, Nataša Marković, Emir Hadžihafizbegović, Bogdan Diklić

Opis:
Radnja ove komedije odvija se krajem 60-ih godina 20. veka. Glavni junak Anđelko, direktor osnovne škole u malom mestu u Bosanskoj Krajini, vodi skroman i naoko skladan porodični život, cenjen od sugrađana i voljen od prijatelja. Anđelko, međutim, ima jednu krupnu manu: falsifikuje školske diplome, i to čini godinama i neštedimice. Bez ikakve nadoknade, iz čistog čovekoljublja i naivnog uverenja da se radi o gestu dobročinstva kojim utire put nečijoj sreći i blagostanju…
Njegova slika sveta počinje da se senči čitavom serijom razočaranja u bliske ljude, najbolji prijatelj ga potkazuje policiji i on, na vreme upozoren, sve kao u najboljem špijunskom filmu, započinje ilegalni život.
Krije ga čitava četa jataka, naravno sve sami vlasnici lažnih diploma. Postepeno, pomagači gube entuzijazam, a Anđelka muči nostalgija.
Posle spektakularnog hapšenja završava u ozloglašenom zeničkom zatvoru. Društvo su mu ubice, okoreli kriminalci, politički zatvorenici i čuvari batinaši, čitava galerija živopisnih likova: Veselin, IB-ovac, Enes, muslimanski fundamentalista, Miljenko, sedamnaestogodišnji ustaša, Ljubinko, četvorostruki ubica...
Iz zatvora izlazi posle dve godine, potpuno izmenjen. Koprena je spala i svet koji se ukazao ne izgleda više vredan življenja. Porodica očekuje onog starog, niko iz okoline nije spreman na tu promenu, početak je kraja...

Kod:
http://www.imdb.com/title/tt2073564/

Falsifikator.2013.DVDRip.XviD-daredule.avi
Size: 897881328 bytes (856.29 MiB), duration: 01:28:30, avg.bitrate: 1353 kb/s
Audio: ac3, 48000 Hz, 5.1, s16, 448 kb/s
Video: mpeg4, yuv420p, 720x306, 25.00 fps(r)

falsifikator2013dvdripxv.jpg


Kod:
http://uptobox.com/ce9xi6uua47r
 
Poslednja izmena od urednika:
MODERATOR
Učlanjen(a)
10.10.2009
Poruka
13.331
Falsifikator (2013) 1080p HD DDP5.1 x264 by Wolf
(MKV) HQ

mmIDKb2.jpg


Kod:
 https://www.imdb.com/title/tt2073564/

MediaInfo:
General
Unique ID : 110026272986535046031619859428331815950 (0x52C64A14E668B378B1A81825F941040E)
Complete name : Falsifikator (2013) 1080p HD DDP5.1 x264 by Wolf.mkv
Format : Matroska
Format version : Version 4
File size : 2.06 GiB
Duration : 1 h 33 min
Overall bit rate : 3 142 kb/s
Encoded date : UTC 2022-06-23 13:42:14
Writing application : mkvmerge v68.0.0 ('The Curtain') 64-bit
Writing library : libebml v1.4.2 + libmatroska v1.6.4

Video
ID : 1
Format : AVC
Format/Info : Advanced Video Codec
Format profile : High@L5.2
Format settings : CABAC / 16 Ref Frames
Format settings, CABAC : Yes
Format settings, Reference : 16 frames
Codec ID : V_MPEG4/ISO/AVC
Duration : 1 h 33 min
Bit rate : 2 500 kb/s
Width : 1 920 pixels
Height : 820 pixels
Display aspect ratio : 2.35:1
Frame rate mode : Constant
Frame rate : 24.000 FPS
Color space : YUV
Chroma subsampling : 4:2:0
Bit depth : 8 bits
Scan type : Progressive
Bits/(Pixel*Frame) : 0.066
Stream size : 1.64 GiB (80%)
Title : Falsifikator (2013)
Writing library : x264 core 164 r3065 ae03d92
Encoding settings : cabac=1 / ref=16 / deblock=1:-2:-2 / analyse=0x3:0x133 / me=umh / subme=10 / psy=1 / psy_rd=1.00:0.25 / mixed_ref=1 / me_range=24 / chroma_me=1 / trellis=2 / 8x8dct=1 / cqm=0 / deadzone=6,6 / fast_pskip=1 / chroma_qp_offset=-4 / threads=6 / lookahead_threads=1 / sliced_threads=0 / nr=0 / decimate=0 / interlaced=0 / bluray_compat=0 / constrained_intra=0 / bframes=8 / b_pyramid=2 / b_adapt=2 / b_bias=0 / direct=3 / weightb=1 / open_gop=0 / weightp=2 / keyint=240 / keyint_min=24 / scenecut=40 / intra_refresh=0 / rc_lookahead=60 / rc=2pass / mbtree=1 / bitrate=2500 / ratetol=1.0 / qcomp=0.80 / qpmin=0 / qpmax=69 / qpstep=4 / cplxblur=20.0 / qblur=0.5 / vbv_maxrate=300000 / vbv_bufsize=300000 / nal_hrd=none / filler=0 / ip_ratio=1.10 / aq=1:0.50
Language : Serbian
Default : Yes
Forced : No
Color range : Limited
Color primaries : BT.709
Transfer characteristics : BT.709
Matrix coefficients : BT.709

Audio
ID : 2
Format : E-AC-3
Format/Info : Enhanced AC-3
Commercial name : Dolby Digital Plus
Codec ID : A_EAC3
Duration : 1 h 33 min
Bit rate mode : Constant
Bit rate : 640 kb/s
Channel(s) : 6 channels
Channel layout : L R C LFE Ls Rs
Sampling rate : 48.0 kHz
Frame rate : 31.250 FPS (1536 SPF)
Compression mode : Lossy
Delay relative to video : -5 ms
Stream size : 430 MiB (20%)
Title : Falsifikator (2013)
Language : Serbian
Service kind : Complete Main
Default : Yes
Forced : No

epYscVA.png

Hidden content
You need to react to this post in order to see this content.
zbNKcak.jpg

Hidden content
You need to react to this post in order to see this content.
InBt80y.jpg

IPi9O21.png
 
Top