Šta je novo?
Član
Učlanjen(a)
09.05.2011
Poruka
7.549
************************************************************
Falls the Shadow (2011) 720p BluRay x264 RUSTED
File Size: 4,37 GiB

************************************************************

fall.jpg


INFO:

General
Complete name : falls.the.shadow.2011.720p.bluray.x264-rusted.mkv
Format : Matroska
Format version : Version 2
File size : 4.37 GiB
Duration : 1h 29mn
Overall bit rate : 7 018 Kbps
Writing application : mkvmerge v4.1.1 ('Bouncin' Back') built on Jul 3 2010 22:54:08
Writing library : libebml v1.0.0 + libmatroska v1.0

Video
ID : 1
Format : AVC
Format/Info : Advanced Video Codec
Format profile : [email protected]
Format settings, CABAC : Yes
Format settings, ReFrames : 5 frames
Codec ID : V_MPEG4/ISO/AVC
Duration : 1h 29mn
Bit rate : 5 508 Kbps
Width : 1 280 pixels
Height : 656 pixels
Display aspect ratio : 1.951
Frame rate mode : Constant
Frame rate : 23.976 fps
Color space : YUV
Chroma subsampling : 4:2:0
Bit depth : 8 bits
Scan type : Progressive
Bits/(Pixel*Frame) : 0.274
Stream size : 3.34 GiB (77%)
Writing library : x264 core 140 r2377 1ca7bb9
Language : English
Default : Yes
Forced : No

Audio
ID : 2
Format : DTS
Format/Info : Digital Theater Systems
Mode : 16
Format settings, Endianness : Big
Codec ID : A_DTS
Duration : 1h 29mn
Bit rate mode : Constant
Bit rate : 1 509 Kbps
Channel(s) : 6 channels
Channel positions : Front: L C R, Side: L R, LFE
Sampling rate : 48.0 KHz
Bit depth : 16 bits
Compression mode : Lossy
Stream size : 961 MiB (22%)
Language : English
Default : Yes
Forced : No

iMDB:
Kod:
http://www.imdb.com/title/tt1883184/

vlcsnap-2014-03-28-20h30.png


vlcsnap-2014-03-28-20h30.png


vlcsnap-2014-03-28-20h32.png


Single Extraction | No Password | Interchangeable Links: | Working 100% |

Kod:
http://rapidgator.net/file/c40584a03362c9bda82925885f4ddafc/F.T.S.2011.720p.RUSTED.part1.rar.html
http://rapidgator.net/file/b00fa0a89ee43e28c188724e9d26c370/F.T.S.2011.720p.RUSTED.part2.rar.html
http://rapidgator.net/file/a507e18dff6e1d401e2f34654c24411c/F.T.S.2011.720p.RUSTED.part3.rar.html
http://rapidgator.net/file/7daac45831770ab9c7e6a9102493db64/F.T.S.2011.720p.RUSTED.part4.rar.html
http://rapidgator.net/file/bcb004b6bff5a08db30de1707a7c2d4d/F.T.S.2011.720p.RUSTED.part5.rar.html

http://uploaded.net/file/bkqnizvt/F.T.S.2011.720p.RUSTED.part1.rar
http://uploaded.net/file/uxt6dony/F.T.S.2011.720p.RUSTED.part2.rar
http://uploaded.net/file/byp5j61d/F.T.S.2011.720p.RUSTED.part3.rar
http://uploaded.net/file/w1y4o5xn/F.T.S.2011.720p.RUSTED.part4.rar
http://uploaded.net/file/9zy5uu77/F.T.S.2011.720p.RUSTED.part5.rar

http://k2s.cc/file/368c94a020887/F.T.S.2011.720p.RUSTED.part1.rar
http://k2s.cc/file/8441089d97a70/F.T.S.2011.720p.RUSTED.part2.rar
http://k2s.cc/file/34eb542f5d6f8/F.T.S.2011.720p.RUSTED.part3.rar
http://k2s.cc/file/2d54a77e9a567/F.T.S.2011.720p.RUSTED.part4.rar
http://k2s.cc/file/0cfaccf1a1976/F.T.S.2011.720p.RUSTED.part5.rar

https://www.oboom.com/3PF2WRI1/F.T.S.2011.720p.RUSTED.part1.rar
https://www.oboom.com/YATCAESQ/F.T.S.2011.720p.RUSTED.part2.rar
https://www.oboom.com/OTSPL6AP/F.T.S.2011.720p.RUSTED.part3.rar
https://www.oboom.com/NO27NB4W/F.T.S.2011.720p.RUSTED.part4.rar
https://www.oboom.com/MBP1M871/F.T.S.2011.720p.RUSTED.part5.rar
 
Top