Šta je novo?
Član
Učlanjen(a)
03.10.2012
Poruka
1.156
Fairytale 2012 BRRip XviD MP3-RARBG


ab5eb96a3a8ff93f16a4bdf0efc8c64f62c823b9.jpg



Kod:
http://imdb.com/title/tt2378191/


Video
ID : 0
Format : MPEG-4 Visual
Format profile : [email protected]
Format settings, BVOP : No
Format settings, QPel : No
Format settings, GMC : No warppoints
Format settings, Matrix : Default (H.263)
Codec ID : XVID
Codec ID/Hint : XviD
Duration : 1 h 27 min
Bit rate : 1 554 kb/s
Width : 720 pixels
Height : 382 pixels
Display aspect ratio : 1.890
Original display aspect ratio : 1.892
Frame rate : 23.976 FPS
Color space : YUV
Chroma subsampling : 4:2:0
Bit depth : 8 bits
Scan type : Progressive
Compression mode : Lossy
Bits/(Pixel*Frame) : 0.236
Stream size : 974 MiB (88%)
Title : RARBG.COM - Fairytale.2012.BRRip.XviD.MP3-RARBG
Writing library : Lavc56.60.100

Audio
ID : 1
Format : MPEG Audio
Format version : Version 1
Format profile : Layer 3
Mode : Joint stereo
Mode extension : MS Stereo
Codec ID : 55
Codec ID/Hint : MP3
Duration : 1 h 27 min
Bit rate mode : Constant
Bit rate : 192 kb/s
Channel(s) : 2 channels
Sampling rate : 48.0 kHz
Compression mode : Lossy
Stream size : 120 MiB (11%)
Alignment : Aligned on interleaves
Interleave, duration : 24 ms (0.58 video frame)
Interleave, preload duration : 24 ms


17328972294922010531_thumb.jpg


06483982136004889760_thumb.jpg


13919477096054829393_thumb.jpg


15859587502063998898_thumb.jpg


76870615423721582100_thumb.jpg



Kod:
http://uploaded.net/file/qrm04vhz/Fairytale.2012.BRRip.XviD.MP3-RARBG.part2.rar
http://uploaded.net/file/urxpktsk/Fairytale.2012.BRRip.XviD.MP3-RARBG.part1.rar
http://uploaded.net/file/bhqq4vz0/Fairytale.2012.BRRip.XviD.MP3-RARBG.part3.rar

http://rapidgator.net/file/28640dcd051daf24abdd670422377f8b/Fairytale.2012.BRRip.XviD.MP3-RARBG.part1.rar.html
http://rapidgator.net/file/20021d6b44043b4e6e8b79c91b3b4018/Fairytale.2012.BRRip.XviD.MP3-RARBG.part2.rar.html
http://rapidgator.net/file/b62f055d352356eb0adaa0d6323c1b0f/Fairytale.2012.BRRip.XviD.MP3-RARBG.part3.rar.html

http://www.filefactory.com/file/4hm6eae1e0k9/Fairytale.2012.BRRip.XviD.MP3-RARBG.part2.rar
http://www.filefactory.com/file/sxs9te0qmz7/Fairytale.2012.BRRip.XviD.MP3-RARBG.part1.rar
http://www.filefactory.com/file/7b1wnv2eo1cn/Fairytale.2012.BRRip.XviD.MP3-RARBG.part3.rar

http://uploadrocket.net/csxqfcdn4cnr/Fairytale.2012.BRRip.XviD.MP3-RARBG.part1.rar.html
http://uploadrocket.net/bns8he1rgxgk/Fairytale.2012.BRRip.XviD.MP3-RARBG.part2.rar.html
http://uploadrocket.net/2h1gkhc665dp/Fairytale.2012.BRRip.XviD.MP3-RARBG.part3.rar.html
 
Top