Šta je novo?

Faces In The Crowd (2011)

Proud to be Serbian
Član
Učlanjen(a)
06.07.2010
Poruka
4.435

[h=3]Faces In The Crowd 2011 1080p BluRay x264-Japhson[/h]
5.jpg





Faces in the Crowd (2011) - IMDb

RELEASE...11/10/10
RIPPER... Japhson
IMDB RATE...N/A
Country: ...USA
HD Source...1080P BluRay
FRAME RATE...23.976Fps
VIDEO CODEC...X264 8505K
AUDIO CODEC..AC3 640k
RESOLUTION..1920x800
RUNTIME.103MINS
GENERE..Horror | Thriller
LANGUAGE...English
SUBSTITLE..N/A
MOVIE SIZE... 1CD x71x100MB

Genre: Horror | Thriller
IMDB rating: -/10
Directed by: Julien Magnat
Starring: Milla Jovovich, Sarah Wayne Callies and Julian McMahon

Plot: Anna (Jovovich) may be the only survivor of serial killer Tearjerk Jack's horrendous reign, but left with "face blindness," she is completely unable to identify him - or anyone else. Now, with only a loyal detective's (Julian McMahon) face familiar to her, she cannot trust anyone as she struggles to resume her normal life, and, plagued by fear and a vindictive Jack, struggles to survive.




Kod:
http://www.fileserve.com/file/aXEJZR6/
http://www.fileserve.com/file/Zuc7Y4c/
http://www.fileserve.com/file/w2PHX3u/
http://www.fileserve.com/file/mDckm3x/
http://www.fileserve.com/file/ePv9QT6/
http://www.fileserve.com/file/H3c6w46/
http://www.fileserve.com/file/yRRa9T3/
http://www.fileserve.com/file/CdYUdgy/
http://www.fileserve.com/file/XetyrzT/
http://www.fileserve.com/file/WXWWyDA/
http://www.fileserve.com/file/BmjB9jY/
http://www.fileserve.com/file/k7VD4wy/
http://www.fileserve.com/file/Y7HSMFq/
http://www.fileserve.com/file/RBa2vA8/
http://www.fileserve.com/file/ZRAXPGt/
 
Poslednja izmena od urednika:
Član
Učlanjen(a)
09.05.2011
Poruka
7.549
Faces In The Crowd 720p (2011) BluRay x264 DTS-HDChina
File Size: 3.27 GB


08a813e73a.jpg

Kod:
General
Unique ID: 216582415630087536952920376138510395674 (0xA2F041872EB63E818C052F37BD88691A)
Complete name: Faces.In.The.Crowd.720p.BluRay.x264.DTS-HDChina.mkv
Format : Matroska
Format version : Version 2
File size: 3.27 GiB
Duration : 1h 42mn
Overall bit rate : 4 568 Kbps
Encoded date : UTC 2011-10-08 06:19:00

Video
ID : 1
Format : AVC
Format/Info: Advanced Video Codec
Format profile : [email protected]
Format settings, CABAC : Yes
Format settings, ReFrames: 12 frames
Codec ID : V_MPEG4/ISO/AVC
Duration : 1h 42mn
Bit rate : 3 069 Kbps
Width: 1 280 pixels
Height : 534 pixels
Display aspect ratio : 2.40:1
Frame rate : 23.976 fps
Color space: YUV
Chroma subsampling : 4:2:0
Bit depth: 8 bits
Scan type: Progressive
Bits/(Pixel*Frame) : 0.187
Stream size: 2.13 GiB (65%)
Writing library: x264 core 114 r1913 5fd3dce
Encoding settings: cabac=1 / ref=12 / deblock=1:-3:-3 / analyse=0x3:0x133 / me=umh / subme=10 / psy=1 / psy_rd=1.00:0.00 / mixed_ref=1 / me_range=32 / chroma_me=1 / trellis=2 / 8x8dct=1 / cqm=0 / deadzone=21,11 / fast_pskip=1 / chroma_qp_offset=-2 / threads=12 / sliced_threads=0 / nr=0 / decimate=0 / interlaced=0 / constrained_intra=0 / bframes=6 / b_pyramid=2 / b_adapt=2 / b_bias=0 / direct=3 / weightb=1 / open_gop=0 / weightp=2 / keyint=250 / keyint_min=23 / scenecut=40 / intra_refresh=0 / rc_lookahead=60 / rc=2pass / mbtree=1 / bitrate=3069 / ratetol=1.0 / qcomp=0.60 / qpmin=0 / qpmax=69 / qpstep=4 / cplxblur=20.0 / qblur=0.5 / vbv_maxrate=50000 / vbv_bufsize=50000 / nal_hrd=none / ip_ratio=1.50 / aq=1:1.00
Language : English

Audio
ID : 2
Format : DTS
Format/Info: Digital Theater Systems
Codec ID : A_DTS
Duration : 1h 42mn
Bit rate mode: Constant
Bit rate : 1 510 Kbps
Channel(s) : 6 channels
Channel positions: Front: L C R, Side: L R, LFE
Sampling rate: 48.0 KHz
Bit depth: 24 bits
Compression mode : Lossy
Stream size: 1.08 GiB (33%)
Kod:
www.imdb.com/title/tt1536410/

5cfeefa373.jpg


Download:
Kod:
http://www.fileserve.com/file/waPFRTM/FacesCrowd.1GB.720p.cW.part1.rar
http://www.fileserve.com/file/c9DFgnS/FacesCrowd.1GB.720p.cW.part2.rar
http://www.fileserve.com/file/eTfjek8/FacesCrowd.1GB.720p.cW.part3.rar
http://www.fileserve.com/file/eNTgefG/FacesCrowd.1GB.720p.cW.part4.rar
 
Poslednja izmena od urednika:
Proud to be Serbian
Član
Učlanjen(a)
06.07.2010
Poruka
4.435

Faces In The Crowd 2011 720p BluRay




5.jpg







Faces in the Crowd (2011) - IMDb

http://www.imdb.com/title/tt1536410/

Genre: Horror | Thriller
IMDB rating: N/A
Directed by: Julien Magnat
Starring: Milla Jovovich, Sarah Wayne Callies and Julian McMahon

Release Name: Faces.In.The.Crowd.720p.BluRay.x264.DTS-HDChina
Size: 3.3 GB
Video: x264 | 1280x534 | 3 069 kbps
Audio: English | DTS | 1 510 kbps
Runtime: 102 mins

A serial killer has been terrorizing the city. An innocent bystander (Milla) witnesses his latest attack, but while fleeing, she falls from a bridge and is knocked unconscious. When she awakes in the hospital, she can't recognize family, her boyfriend or even her own face in the mirror. She is diagnosed with prosopagnosia, or face blindness. This is a real neurological disorder, like dyslexia but with faces, caused by a lesion of the temporal lobe, the part of the brain that allows us in a heartbeat to compare someone's face with all the faces stored in our memory. She is incapable of recognizing the same face twice. Every time she looks at someone, it's like she's never met them before. Being the only witness, she is hunted by the killer, leaving her paranoid in a sea of unfamiliar faces. Where can she turn? Who can she trust? Who is she waking up next to? Who is standing next to her? This suspense thriller takes us on a terrifying ride thru the blurry eyes of a woman searching for a monster amongst the faces in the crowd.








Kod:
http://www.fileserve.com/file/ZhzKeu6/Faces.In.The.Crowd.720p.BluRay.x264.DTS-HDChina.part1.rar
http://www.fileserve.com/file/BTvaUcy/Faces.In.The.Crowd.720p.BluRay.x264.DTS-HDChina.part2.rar
http://www.fileserve.com/file/BWPQ77R/Faces.In.The.Crowd.720p.BluRay.x264.DTS-HDChina.part3.rar
http://www.fileserve.com/file/VvnZXxy/Faces.In.The.Crowd.720p.BluRay.x264.DTS-HDChina.part4.rar
 
Poslednja izmena od urednika:
ADMINISTRATOR
Učlanjen(a)
10.05.1971
Poruka
54.129
facesinthecrowd2011br.jpg


Kod:
http://www.imdb.com/title/tt1536410/

aviaryimdbcompicture4.png


[TITLE].........................[ Faces in the Crowd
[DIRECTOR]......................[ Julien Magnat
[RELEASE DATE]..................[ 2011
[FORMAT]:.......................[ Matroska (MKV)
[GENRE]:........................[ Horror | Thriller
[NO OF CDs].....................[ 1
[FILE SIZE]:....................[ 650MB
[RESOLUTION]:...................[ 1280x534
[LANGUAGE ]:....................[ English
[SUBTITLES]:....................[ none
[ORIGINAL RUNTIME]:.............[ 01:42:32
[RELEASE RUNTIME]:..............[ 01:42:32

facess.jpg


Kod:
http://freakshare.com/files/86z48tnr/Faces.rar
 
Top