Šta je novo?
VIP IPTV
Učlanjen(a)
09.12.2012
Poruka
22.035
Enklava AKA Enclave (2015)

PRJHRn.jpg


http://www.imdb.com/title/tt2886632/

Film obrađuje temu položaja Srba koji su ostali da žive na Kosovu i Metohiji nakon 1999. godine u malim izolovanim zajednicama - enklavama.

Šta se dešava kada neko premine u enklavi, a groblje se nalazi izvan nje, na neprijateljskoj teritoriji? U ovoj priči, uz mnogo peripetija, jedan osamdesetogodišnji starac će ipak biti sahranjen, i to zahvaljujući svom unuku, desetogodišnjem dečaku koji se usudio da učini nešto nemoguće za obe zajednice, srpsku i albansku - da zavoli i stekne prijatelja na suprotnoj strani...

MZ0yeH.png

7AQ3aD.png

f2D8US.png

e0swzc.png

Lqfpc8.png

gWJv3l.png


Hidden content
You need to react to this post in order to see this content.
 
MODERATOR
Učlanjen(a)
10.10.2009
Poruka
13.331
Enklava (2015) DVDrip AC3 5.1 x264 by Wolf
(MKV) HQ

Enklava_B1.jpg


Kod:
  https://www.imdb.com/title/tt2886632/

General
Unique ID : 303682011546270127189654253119326052398 (0xE4770728719358CC967A21B646D2E02E)
Complete name : Enklava (2015) DVDrip AC3 5.1 x264 by Wolf.mkv
Format : Matroska
Format version : Version 4
File size : 1.08 GiB
Duration : 1 h 28 min
Overall bit rate : 1 757 kb/s
Encoded date : UTC 2018-12-15 16:38:46 / UTC 2018-12-15T13:26:59Z
Writing application : mkvmerge v29.0.0 ('Like It Or Not') 64-bit
Writing library : libebml v1.3.6 + libmatroska v1.4.9 / Lavf57.7.2

Video
ID : 1
Format : AVC
Format/Info : Advanced Video Codec
Format profile : High@L5.1
Format settings : CABAC / 8 Ref Frames
Format settings, CABAC : Yes
Format settings, ReFrames : 8 frames
Codec ID : V_MPEG4/ISO/AVC
Duration : 1 h 28 min
Bit rate : 1 500 kb/s
Width : 720 pixels
Height : 572 pixels
Display aspect ratio : 16:9
Frame rate mode : Constant
Frame rate : 25.000 FPS
Color space : YUV
Chroma subsampling : 4:2:0
Bit depth : 8 bits
Scan type : Progressive
Bits/(Pixel*Frame) : 0.146
Stream size : 926 MiB (83%)
Title : Enklava (2015)
Writing library : x264 core 155 r2901 7d0ff22
Encoding settings : cabac=1 / ref=8 / deblock=1:-1:-1 / analyse=0x3:0x133 / me=umh / subme=9 / psy=1 / psy_rd=1.00:0.15 / mixed_ref=1 / me_range=16 / chroma_me=1 / trellis=2 / 8x8dct=1 / cqm=0 / deadzone=21,11 / fast_pskip=1 / chroma_qp_offset=-3 / threads=6 / lookahead_threads=1 / sliced_threads=0 / nr=0 / decimate=1 / interlaced=0 / bluray_compat=0 / constrained_intra=0 / bframes=3 / b_pyramid=2 / b_adapt=2 / b_bias=0 / direct=3 / weightb=1 / open_gop=0 / weightp=2 / keyint=250 / keyint_min=25 / scenecut=40 / intra_refresh=0 / rc_lookahead=60 / rc=2pass / mbtree=1 / bitrate=1500 / ratetol=1.0 / qcomp=0.60 / qpmin=0 / qpmax=69 / qpstep=4 / cplxblur=20.0 / qblur=0.5 / vbv_maxrate=300000 / vbv_bufsize=300000 / nal_hrd=none / filler=0 / ip_ratio=1.40 / aq=1:1.00
Language : Serbian
Default : Yes
Forced : No
Color range : Limited
Color primaries : BT.601 PAL
Transfer characteristics : BT.709
Matrix coefficients : BT.601
Statistics Tags Issue : mkvmerge v29.0.0 ('Like It Or Not') 64-bit 2018-12-15 16:38:46 / mkvmerge v29.0.0 ('Like It Or Not') 64-bit 2018-12-15 16:38:46 / UTC 2018-12-15T13:26:59Z
FromStats_BitRate : 1499652
FromStats_Duration : 01:28:15.160000000
FromStats_FrameCount : 132378
FromStats_StreamSize : 992612568

Audio
ID : 2
Format : AC-3
Format/Info : Audio Coding 3
Commercial name : Dolby Digital
Codec ID : A_AC3
Duration : 1 h 28 min
Bit rate mode : Constant
Bit rate : 256 kb/s
Channel(s) : 6 channels
Channel layout : L R C LFE Ls Rs
Sampling rate : 48.0 kHz
Frame rate : 31.250 FPS (1536 SPF)
Bit depth : 16 bits
Compression mode : Lossy
Delay relative to video : -80 ms
Stream size : 162 MiB (15%)
Title : Enklava (2015)
Language : Serbian
Service kind : Complete Main
Default : Yes
Forced : No
Statistics Tags Issue : mkvmerge v29.0.0 ('Like It Or Not') 64-bit 2018-12-15 16:38:46 / mkvmerge v29.0.0 ('Like It Or Not') 64-bit 2018-12-15 16:38:46 / UTC 2018-12-15T13:26:59Z
FromStats_BitRate : 256000
FromStats_Duration : 01:28:15.168000000
FromStats_FrameCount : 165474
FromStats_StreamSize : 169445376

Text
ID : 3
Format : UTF-8
Codec ID : S_TEXT/UTF8
Codec ID/Info : UTF-8 Plain Text
Title : ENKLAVA
Language : Serbian
Default : Yes
Forced : No
Statistics Tags Issue : mkvmerge v29.0.0 ('Like It Or Not') 64-bit 2018-12-15 16:38:46 / mkvmerge v29.0.0 ('Like It Or Not') 64-bit 2018-12-15 16:38:46 / UTC 2018-12-15T13:26:59Z
FromStats_BitRate : 4
FromStats_Duration : 01:15:39.940000000
FromStats_FrameCount : 118
FromStats_StreamSize : 2770

epYscVA.png

Hidden content
You need to react to this post in order to see this content.
jPaOFzu.png

9okLdDB.jpg
 
Poslednja izmena:
Top