Šta je novo?
Član
Učlanjen(a)
23.12.2014
Poruka
3.612
tmsZ7.jpg

Eat (2014) 720p BluRay x264-NOSCREENS

iNFO URL:
Kod:
http://www.imdb.com/title/tt3013018/
STORYLiNE:
Novella McClure is like most struggling actresses in Los Angeles: she's in her early 30s, her fake name sounded cooler ten years ago, and she hasn't landed a role in three years. To top it all off, she's developed a disturbing habit of eating her own flesh. Novella desperately tries to hide her strange condition from her motherly landlord, Eesha, and somewhat psychopathic best friend, Candice, but her body and mind continue to deteriorate in the depressing world of failed auditions and sketchy night clubs. Can a romantic relationship with her psychiatrist prevent her from self destruction? Or will her fatal habit continue to eat away at her?
ViDEO iNFO:
File: noscr-eat-720p.mkv
Size: 4687331900 bytes (4.37 GiB), duration: 01:30:52, avg.bitrate: 6878 kb/s
Audio: dts, 48000 Hz, 5:1 (eng)
Video: h264, yuv420p, 1280x536, 23.98 fps(r) (eng)

a47f2fed527a90e0210f0e85285c34c6.jpg


RAPIDGATOR
Kod:
http://rapidgator.net/file/bc46eb042e7b72a59bd0c62100db7ff4/noscr-eat-720p.part1.rar.html
http://rapidgator.net/file/90ba1ae2c9d82db3253a3bacb7660f7e/noscr-eat-720p.part2.rar.html
http://rapidgator.net/file/35cf8ff17c14525f7153fa49570bbfae/noscr-eat-720p.part3.rar.html
http://rapidgator.net/file/6ef82f58fca44f99654ddfa4cebb7ad2/noscr-eat-720p.part4.rar.html
http://rapidgator.net/file/32b3e9b8ba0321546ea675cd09ad8f0d/noscr-eat-720p.part5.rar.html

UPLOADED.NET
Kod:
http://uploaded.net/file/53t6b0xu/noscr-eat-720p.part1.rar
http://uploaded.net/file/03hrbel6/noscr-eat-720p.part2.rar
http://uploaded.net/file/uq747nc3/noscr-eat-720p.part3.rar
http://uploaded.net/file/j541g2qg/noscr-eat-720p.part4.rar
http://uploaded.net/file/5blndqhk/noscr-eat-720p.part5.rar

UPLOADABLE
Kod:
http://www.uploadable.ch/file/mJyxVpdc847u
http://www.uploadable.ch/file/FPdm4uDNXpFH
http://www.uploadable.ch/file/An7zByMzrHfK
http://www.uploadable.ch/file/7B7ZtV8kQvpb
http://www.uploadable.ch/file/Fb7Gf5QhnAzu

ROCKFILE
Kod:
http://rockfile.eu/enjo0u7hdy0f.html
http://rockfile.eu/jqvpl2sxbhe5.html
http://rockfile.eu/yv2wr1fbzfsm.html
http://rockfile.eu/aftj8vf0ajv7.html
http://rockfile.eu/jfu4mp2dkqi8.html

i46K9KIHkGb1W.png
 
Član
Učlanjen(a)
09.05.2011
Poruka
7.549

************************************************************
Eat (2014) 1080p BluRay x264 NOSCREENS
File Size: 6.810 GiB
************************************************************


eat.jpg


INFO:
Kod:
General
Complete name                            : noscr-eat-1080p.mkv
Format                                   : Matroska
Format version                           : Version 4 / Version 2
File size                                : 6.55 GiB
Duration                                 : 1h 30mn
Overall bit rate                         : 10.3 Mbps
Encoded date                             : UTC 2015-03-30 04:07:48
Writing application                      : mkvmerge v7.1.0 ('Good Love') 64bit built on Jul 27 2014 13:06:55
Writing library                          : libebml v1.3.0 + libmatroska v1.4.1
DURATION                                 : 01:30:51

Video
ID                                       : 1
Format                                   : AVC
Format/Info                              : Advanced Video Codec
Format profile                           : [email protected]
Format settings, CABAC                   : Yes
Format settings, ReFrames                : 5 frames
Codec ID                                 : V_MPEG4/ISO/AVC
Duration                                 : 1h 30mn
Bit rate                                 : 8 811 Kbps
Width                                    : 1 920 pixels
Height                                   : 808 pixels
Display aspect ratio                     : 2.40:1
Frame rate mode                          : Constant
Frame rate                               : 23.976 fps
Color space                              : YUV
Chroma subsampling                       : 4:2:0
Bit depth                                : 8 bits
Scan type                                : Progressive
Bits/(Pixel*Frame)                       : 0.237
Stream size                              : 5.47 GiB (83%)
Writing library                          : x264 core 146 r2538 121396c
Language                                 : English
Default                                  : Yes
Forced                                   : No
DURATION                                 : 01:30:52

Audio
ID                                       : 2
Format                                   : DTS
Format/Info                              : Digital Theater Systems
Mode                                     : 16
Format settings, Endianness              : Big
Codec ID                                 : A_DTS
Duration                                 : 1h 30mn
Bit rate mode                            : Constant
Bit rate                                 : 1 509 Kbps
Channel(s)                               : 6 channels
Channel positions                        : Front: L C R, Side: L R, LFE
Sampling rate                            : 48.0 KHz
Bit depth                                : 24 bits
Compression mode                         : Lossy
Stream size                              : 981 MiB (15%)
Language                                 : English
Default                                  : Yes
Forced                                   : No

iMDB:
Kod:
http://www.imdb.com/title/tt3013018/

eat.png



Single Extraction | No Password | Interchangeable Links: | Working 100% |

Kod:
http://rapidgator.net/file/e2963d29daa0eea4dd8fde6365afb293/Eat.1080p.NOSCREENS.part1.rar.html
http://rapidgator.net/file/0efbbe844ba182f25a60c8f30f83f3d4/Eat.1080p.NOSCREENS.part2.rar.html
http://rapidgator.net/file/8e131b2c59eeb6c8bcef12395db9ce72/Eat.1080p.NOSCREENS.part3.rar.html
http://rapidgator.net/file/f658f8b8e4575a1d3e5763c8734a3473/Eat.1080p.NOSCREENS.part4.rar.html
http://rapidgator.net/file/4d8e1212671c3c555c583f449d0d2b76/Eat.1080p.NOSCREENS.part5.rar.html
http://rapidgator.net/file/8cb5491d43f2330315991a5a259077e1/Eat.1080p.NOSCREENS.part6.rar.html
http://rapidgator.net/file/fa625be4266877abc3cd76a4b4cd4b69/Eat.1080p.NOSCREENS.part7.rar.html

http://uploaded.net/file/36sabu4p/Eat.1080p.NOSCREENS.part1.rar
http://uploaded.net/file/fnrz6exy/Eat.1080p.NOSCREENS.part2.rar
http://uploaded.net/file/tdzp8mv4/Eat.1080p.NOSCREENS.part3.rar
http://uploaded.net/file/86lvnw49/Eat.1080p.NOSCREENS.part4.rar
http://uploaded.net/file/w5vqlyy4/Eat.1080p.NOSCREENS.part5.rar
http://uploaded.net/file/gvxo6aqh/Eat.1080p.NOSCREENS.part6.rar
http://uploaded.net/file/pduux1jg/Eat.1080p.NOSCREENS.part7.rar

http://k2s.cc/file/ff143f834bd27/Eat.1080p.NOSCREENS.part1.rar
http://k2s.cc/file/6c5103853c9e8/Eat.1080p.NOSCREENS.part2.rar
http://k2s.cc/file/4b8c56bc11297/Eat.1080p.NOSCREENS.part3.rar
http://k2s.cc/file/cc036ff4874ea/Eat.1080p.NOSCREENS.part4.rar
http://k2s.cc/file/3efa819bd109d/Eat.1080p.NOSCREENS.part5.rar
http://k2s.cc/file/0b34a48693a9e/Eat.1080p.NOSCREENS.part6.rar
http://k2s.cc/file/207275a6104cb/Eat.1080p.NOSCREENS.part7.rar


http://www.nitroflare.com/view/74853D65E8EEF7F
http://www.nitroflare.com/view/B93C2DEA6130C5A
http://www.nitroflare.com/view/2B9271D0D96583E
http://www.nitroflare.com/view/1D7B2446DD5F470
http://www.nitroflare.com/view/42F3E55421A7149
http://www.nitroflare.com/view/E7EAF981F1D46FE
http://www.nitroflare.com/view/29C97EF73C1E3E0
 
Top