Šta je novo?

Easy Money Life Deluxe (2013)

Član
Učlanjen(a)
09.05.2011
Poruka
7.549
************************************************************
Easy Money Life Deluxe (2013) 720p BluRay x264 ROVERS
File Size: 6,55 GiB
Audio 1: Swedish | DTS | 1509 kbps
Audio 2: English (DUBBED) | DTS | 1509 kbps

************************************************************

easy.jpg


INFO:
Kod:
General
Complete name                            : Easy.Money.Life.Deluxe.2013.720p.BluRay.x264-ROVERS.mkv
Format                                   : Matroska
Format version                           : Version 4 / Version 2
File size                                : 6.55 GiB
Duration                                 : 2h 7mn
Overall bit rate                         : 7 346 Kbps
Encoded date                             : UTC 2014-05-09 17:15:58
Writing application                      : mkvmerge v6.2.0 ('Promised Land') built on Apr 28 2013 12:22:01
Writing library                          : libebml v1.3.0 + libmatroska v1.4.0

Video
ID                                       : 1
Format                                   : AVC
Format/Info                              : Advanced Video Codec
Format profile                           : [email protected]
Format settings, CABAC                   : Yes
Format settings, ReFrames                : 5 frames
Codec ID                                 : V_MPEG4/ISO/AVC
Duration                                 : 2h 7mn
Bit rate                                 : 4 350 Kbps
Width                                    : 1 280 pixels
Height                                   : 536 pixels
Display aspect ratio                     : 2.40:1
Frame rate mode                          : Constant
Frame rate                               : 23.976 fps
Color space                              : YUV
Chroma subsampling                       : 4:2:0
Bit depth                                : 8 bits
Scan type                                : Progressive
Bits/(Pixel*Frame)                       : 0.264
Stream size                              : 3.73 GiB (57%)
Writing library                          : x264 core 142 r2431 ac76440
Language                                 : Swedish
Default                                  : Yes
Forced                                   : No

Audio #1
ID                                       : 2
Format                                   : DTS
Format/Info                              : Digital Theater Systems
Mode                                     : 16
Format settings, Endianness              : Big
Codec ID                                 : A_DTS
Duration                                 : 2h 7mn
Bit rate mode                            : Constant
Bit rate                                 : 1 509 Kbps
Channel(s)                               : 6 channels
Channel positions                        : Front: L C R, Side: L R, LFE
Sampling rate                            : 48.0 KHz
Bit depth                                : 24 bits
Compression mode                         : Lossy
Stream size                              : 1.35 GiB (21%)
Language                                 : English
Default                                  : No
Forced                                   : No

Audio #2
ID                                       : 3
Format                                   : DTS
Format/Info                              : Digital Theater Systems
Mode                                     : 16
Format settings, Endianness              : Big
Codec ID                                 : A_DTS
Duration                                 : 2h 7mn
Bit rate mode                            : Constant
Bit rate                                 : 1 509 Kbps
Channel(s)                               : 6 channels
Channel positions                        : Front: L C R, Side: L R, LFE
Sampling rate                            : 48.0 KHz
Bit depth                                : 24 bits
Compression mode                         : Lossy
Stream size                              : 1.35 GiB (21%)
Language                                 : Swedish
Default                                  : Yes
Forced                                   : Yes

iMDB:
Kod:
http://www.imdb.com/title/tt2427502/

easyhd.png


Single Extraction | No Password | Interchangeable Links: | Working 100% |

Kod:
http://rapidgator.net/file/7b94c32d8acd9c010219f2b228eb063d/EMLD2013720p.ROVERS.part1.rar.html
http://rapidgator.net/file/5f0c3f5677e8ce8a9d95e4019790b4ee/EMLD2013720p.ROVERS.part2.rar.html
http://rapidgator.net/file/2d98f76bdfe4e5414e3d00f14e3d7247/EMLD2013720p.ROVERS.part3.rar.html
http://rapidgator.net/file/4c9d579a6b9ca1d23291e89640e167db/EMLD2013720p.ROVERS.part4.rar.html
http://rapidgator.net/file/7b47d7a501df4f265f158c48f61faff0/EMLD2013720p.ROVERS.part5.rar.html
http://rapidgator.net/file/3d0725da8348732df1e79b1a6abd19ae/EMLD2013720p.ROVERS.part6.rar.html
http://rapidgator.net/file/091603178bf4156dc89f9648f40918f2/EMLD2013720p.ROVERS.part7.rar.html

http://uploaded.net/file/ip7c3j7o/EMLD2013720p.ROVERS.part1.rar
http://uploaded.net/file/32rg3w8b/EMLD2013720p.ROVERS.part2.rar
http://uploaded.net/file/gk1w4ytw/EMLD2013720p.ROVERS.part3.rar
http://uploaded.net/file/dhbvqyo6/EMLD2013720p.ROVERS.part4.rar
http://uploaded.net/file/wc0h5kqt/EMLD2013720p.ROVERS.part5.rar
http://uploaded.net/file/or8uezm0/EMLD2013720p.ROVERS.part6.rar
http://uploaded.net/file/20985q1x/EMLD2013720p.ROVERS.part7.rar

https://www.oboom.com/6B9GOVD6/EMLD2013720p.ROVERS.part1.rar
https://www.oboom.com/67QP9LEY/EMLD2013720p.ROVERS.part2.rar
https://www.oboom.com/INTTMTVY/EMLD2013720p.ROVERS.part3.rar
https://www.oboom.com/GQU484Z7/EMLD2013720p.ROVERS.part4.rar
https://www.oboom.com/IXH9IY7Y/EMLD2013720p.ROVERS.part5.rar
https://www.oboom.com/Z6VH52P7/EMLD2013720p.ROVERS.part6.rar
https://www.oboom.com/AHE3XNQE/EMLD2013720p.ROVERS.part7.rar

http://terafile.co/667932458373/EMLD2013720p.ROVERS.part1.rar
http://terafile.co/7096048f5e14/EMLD2013720p.ROVERS.part2.rar
http://terafile.co/f710608269e4/EMLD2013720p.ROVERS.part3.rar
http://terafile.co/9926049189eb/EMLD2013720p.ROVERS.part4.rar
http://terafile.co/07062556d808/EMLD2013720p.ROVERS.part5.rar
http://terafile.co/5aa3417349cc/EMLD2013720p.ROVERS.part6.rar
http://terafile.co/26d1d1862487/EMLD2013720p.ROVERS.part7.rar
 
Top