Šta je novo?
SerbianForum

Dobrodošli na SerbianForum.org, mjesto na kojem možete pronaći apsolutno sve, mjesto druženja i odlične zabave!

Dumbo aka Дамбо (2019)

  • Začetnik teme simark
  • Datum pokretanja
S

simark

Дамбо- НОВ српски звук
Dumbo -new serbian&eng

Нови српски одличан звук за причу о симпатичном слончету. Остављен
и енглески звук а фајл је мали и више резолуције као и пре. Уживајте...


Complete name : Дамбо нов - Dumbo.2019.720p.BluRay.898MB.x264.Dual-simark.mkv

File size : 899 MiB
Duration : 1 h 51 min

Video
Codec ID : V_MPEG4/ISO/AVC
Bit rate : 896 kb/s
Width : 1 280 pixels
Height : 688 pixels
Display aspect ratio : 1.85:1
Frame rate : 23.976 (24000/1001) FPS
Stream size : 717 MiB (80%)

Audio #1
Codec ID : A_AAC-2
Bit rate : 127 kb/s
Channel(s) : 2 channels
Sampling rate : 48.0 kHz
Stream size : 102 MiB (11%)
Language : Serbian

Audio #2
Codec ID : A_AAC-2
Bit rate : 96.0 kb/s
Channel(s) : 2 channels
Sampling rate : 48.0 kHz
Stream size : 77.5 MiB (9%)
Language : English



Hidden content
You need to react to this post in order to see this content.
Нема шифре...
 
Poslednja izmena:
Top