Šta je novo?
Član
Učlanjen(a)
09.05.2011
Poruka
7.549
************************************************************
Dark Tourist (2012) 720p BRRip XViD SUMMERJOLLiES
File Size: 1,53 GiB

************************************************************

dark.jpg


Title: Dark Tourist
Year: 2012
Genre: Drama, Thriller
Rating: 7.4 (36 votes)
Runtime: N/A
Director: Suri Krishnamma
Cast: Melanie Griffith, Pruitt Taylor Vince, Michael Cudlitz, Suzanne Quast
Plot:
Kod:
A psychological-thriller in the haunting tradition of films like Taxi Driver and Monster, The Grief...


INFO:
General
Complete name : Tourist.avi
Format : AVI
Format/Info : Audio Video Interleave
Format profile : OpenDML
File size : 2.35 GiB
Duration : 1h 16mn
Overall bit rate : 4 379 Kbps
Writing application : VirtualDubMod 1.5.10.2 (build 2540/release)
Writing library : VirtualDubMod build 2540/release

Video
ID : 0
Format : MPEG-4 Visual
Format profile : Advanced [email protected]
Format settings, BVOP : 2
Format settings, QPel : No
Format settings, GMC : No warppoints
Format settings, Matrix : Default (H.263)
Muxing mode : Packed bitstream
Codec ID : XVID
Codec ID/Hint : XviD
Duration : 1h 16mn
Bit rate : 3 727 Kbps
Width : 1 280 pixels
Height : 720 pixels
Display aspect ratio : 16:9
Frame rate : 25.000 fps
Color space : YUV
Chroma subsampling : 4:2:0
Bit depth : 8 bits
Scan type : Progressive
Compression mode : Lossy
Bits/(Pixel*Frame) : 0.162
Stream size : 2.00 GiB (85%)
Writing library : XviD 64

Audio
ID : 1
Format : AC-3
Format/Info : Audio Coding 3
Mode extension : CM (complete main)
Format settings, Endianness : Big
Codec ID : 2000
Duration : 1h 16mn
Bit rate mode : Constant
Bit rate : 640 Kbps
Channel count : 6 channels
Channel positions : Front: L C R, Side: L R, LFE
Sampling rate : 48.0 KHz
Bit depth : 16 bits
Compression mode : Lossy
Stream size : 352 MiB (15%)
Alignment : Split accross interleaves
Interleave, duration : 40 ms (1.00 video frame)
Interleave, preload duration : 500 ms

iMDB:
Kod:
[url]http://www.imdb.com/title/tt1719068/[/url]
Movie Trailer:
Kod:
[media=youtube]vhKCgouosz8[/media]


vlcsnap-2014-02-13-19h04.png


vlcsnap-2014-02-13-19h04.png


vlcsnap-2014-02-13-19h04.png



SINGLE EXTRACTION | NO PASSWORD | INTERCHANGEABLE LINK:

Kod:
[url]http://uploaded.net/file/u060hfqn/DTour1sT.part1.rar[/url]
[url]http://uploaded.net/file/fknl11ad/DTour1sT.part2.rar[/url]
[url]http://uploaded.net/file/nmld2suu/DTour1sT.part3.rar[/url]
[url]http://uploaded.net/file/z0zp4cbo/DTour1sT.part4.rar[/url]

[url]http://rapidgator.net/file/71984307807e194eb8ebfdb27d65764d/DTour1sT.part1.rar.html[/url]
[url]http://rapidgator.net/file/de0967cfbbd43fde0dd96b9fcc292833/DTour1sT.part2.rar.html[/url]
[url]http://rapidgator.net/file/86c15539efccc9fd4c862a0fdfc85b60/DTour1sT.part3.rar.html[/url]
[url]http://rapidgator.net/file/f418151ef59cdd5c7f587aa9aa6256b5/DTour1sT.part4.rar.html[/url]

[url]http://keep2share.cc/file/3d85772e1ce28[/url]
[url]http://keep2share.cc/file/f29f7abd5196b[/url]
[url]http://keep2share.cc/file/df1d31efe61dd[/url]
[url]http://keep2share.cc/file/e683d1392d068[/url]
 
Poslednja izmena od urednika:
Top