Šta je novo?
Učlanjen(a)
28.09.2013
Poruka
122
=
Dark Touch (2013) 720p WEBRip XviD AC3 INFERNO
File Size:

=

dark.jpg


General
Complete name : Dark Touch 2013 720p WEBRIP Xvid AC3-INFERNO.avi
Format : AVI
Format/Info : Audio Video Interleave
Format profile : OpenDML
Format settings : rec
File size : 2.50 GiB
Duration : 1h 31mn
Overall bit rate : 3 909 Kbps
Writing application : AVI-Mux GUI 1.17.8.3, Feb 16 201019:42:50

Video
ID : 0
Format : MPEG-4 Visual
Format profile : Advanced [email protected]
Format settings, BVOP : 2
Format settings, QPel : No
Format settings, GMC : No warppoints
Format settings, Matrix : Custom
Muxing mode : Packed bitstream
Codec ID : XVID
Codec ID/Hint : XviD
Duration : 1h 31mn
Bit rate : 3 455 Kbps
Width : 1 280 pixels
Height : 536 pixels
Display aspect ratio : 2.40:1
Frame rate : 24.000 fps
Color space : YUV
Chroma subsampling : 4:2:0
Bit depth : 8 bits
Scan type : Progressive
Compression mode : Lossy
Bits/(Pixel*Frame) : 0.210
Stream size : 2.21 GiB (88%)
Writing library : XviD 64

Audio
ID : 1
Format : AC-3
Format/Info : Audio Coding 3
Mode extension : CM (complete main)
Format settings, Endianness : Big
Codec ID : 2000
Duration : 1h 31mn
Bit rate mode : Constant
Bit rate : 448 Kbps
Channel(s) : 6 channels
Channel positions : Front: L C R, Side: L R, LFE
Sampling rate : 48.0 KHz
Bit depth : 16 bits
Compression mode : Lossy
Stream size : 293 MiB (11%)
Alignment : Aligned on interleaves
Interleave, duration : 64 ms (1.54 video frames)
Interleave, preload duration : 192 ms

PLOT: In a remote town in Ireland, eleven-year-old Niamh finds herself the sole survivor of a bloody massacre that killed her parents and younger brother. Suspecting a gang of homicidal vandals, ..

Kod:
http://www.imdb.com/title/tt2328549/

dark-touch-2013-720p-web.jpg



DOWNLOAD:

Kod:
http://uploaded.net/file/bwh82ep6/DaRkT0uCh.720p.WEBRip.part1.rar
http://uploaded.net/file/ukrxh0g0/DaRkT0uCh.720p.WEBRip.part2.rar
http://uploaded.net/file/ix0498r1/DaRkT0uCh.720p.WEBRip.part3.rar
http://uploaded.net/file/qbu4m7np/DaRkT0uCh.720p.WEBRip.part4.rar

http://rapidgator.net/file/173bbeccb172c9c89fc8b455b118c49f/DaRkT0uCh.720p.WEBRip.part1.rar.html
http://rapidgator.net/file/7ce532c4a645e68b80eada09f8d40ceb/DaRkT0uCh.720p.WEBRip.part2.rar.html
http://rapidgator.net/file/39cb8ad7c5e0b81d61de2f427582ae01/DaRkT0uCh.720p.WEBRip.part3.rar.html
http://rapidgator.net/file/5d7ec35cb13920707118b3d55f41fb45/DaRkT0uCh.720p.WEBRip.part4.rar.html

http://ryushare.com/419316e7a4b8/DaRkT0uCh.720p.WEBRip.part1.rar
http://ryushare.com/427beb8cbfb4/DaRkT0uCh.720p.WEBRip.part2.rar
http://ryushare.com/40aa42429839/DaRkT0uCh.720p.WEBRip.part3.rar
http://ryushare.com/40aa42429838/DaRkT0uCh.720p.WEBRip.part4.rar

http://lumfile.com/x7745bt8383i/DaRkT0uCh.720p.WEBRip.part1.rar.html
http://lumfile.com/u86k4z4xoyg5/DaRkT0uCh.720p.WEBRip.part2.rar.html
http://lumfile.com/z6xzholi3rmy/DaRkT0uCh.720p.WEBRip.part3.rar.html
http://lumfile.com/q9upv6vw3ico/DaRkT0uCh.720p.WEBRip.part4.rar.html
 
Poslednja izmena od urednika:
Top