Šta je novo?
Član
Učlanjen(a)
09.05.2011
Poruka
7.549
=
Dark Power (2013) VODRip XViD UNiQUE
File Size:

=

dark.jpg



Format : AVI
Format/Info : Audio Video Interleave
File size : 1.43 GiB
Duration : 1h 36mn
Overall bit rate : 2 107 Kbps
Writing application : VirtualDubMod 1.5.10.2 (build 2540/release)
Writing library : VirtualDubMod build 2540/release

Video
ID : 0
Format : MPEG-4 Visual
Format profile : Advanced [email protected]
Format settings, BVOP : 2
Format settings, QPel : No
Format settings, GMC : No warppoints
Format settings, Matrix : Default (H.263)
Muxing mode : Packed bitstream
Codec ID : XVID
Codec ID/Hint : XviD
Duration : 1h 36mn
Bit rate : 1 905 Kbps
Width : 720 pixels
Height : 400 pixels
Display aspect ratio : 16:9
Frame rate : 23.976 fps
Color space : YUV
Chroma subsampling : 4:2:0
Bit depth : 8 bits
Scan type : Progressive
Compression mode : Lossy
Bits/(Pixel*Frame) : 0.276
Stream size : 1.29 GiB (90%)
Writing library : XviD 64

Audio
ID : 1
Format : AC-3
Format/Info : Audio Coding 3
Mode extension : CM (complete main)
Format settings, Endianness : Big
Codec ID : 2000
Duration : 1h 36mn
Bit rate mode : Constant
Bit rate : 192 Kbps
Channel(s) : 2 channels
Channel positions : Front: L R
Sampling rate : 48.0 KHz
Bit depth : 16 bits
Compression mode : Lossy
Stream size : 133 MiB (9%)
Alignment : Split accross interleaves
Interleave, duration : 42 ms (1.00 video frame)
Interleave, preload duration : 500 ms

Kod:
http://www.imdb.com/title/tt2132301/

vlcsnap-2013-07-20-19h48.png


vlcsnap-2013-07-20-19h48.png


vlcsnap-2013-07-20-19h49.png




DOWNLOAD:
Kod:
http://uploaded.net/file/lf1480o0/Dark.Power.VODRip.UNiQUE.part1.rar
http://uploaded.net/file/qtkef9md/Dark.Power.VODRip.UNiQUE.part2.rar
http://uploaded.net/file/ouq0h7wv/Dark.Power.VODRip.UNiQUE.part3.rar
http://uploaded.net/file/d28dt0xs/Dark.Power.VODRip.UNiQUE.part4.rar

http://rapidgator.net/file/dc2bf9cbdb5d9db76ad70d50423b0d56/Dark.Power.VODRip.UNiQUE.part1.rar.html
http://rapidgator.net/file/13ab84142230530afa57bf686f686c9e/Dark.Power.VODRip.UNiQUE.part2.rar.html
http://rapidgator.net/file/863095342e8203585ec4e9a201aadbd7/Dark.Power.VODRip.UNiQUE.part3.rar.html
http://rapidgator.net/file/1f357e21ec9ea2ab3d83f240bab63bd6/Dark.Power.VODRip.UNiQUE.part4.rar.html

http://netload.in/dateiGfPpgYdQEG/Dark.Power.VODRip.UNiQUE.part1.rar.htm
http://netload.in/dateiHaXxjK2pfJ/Dark.Power.VODRip.UNiQUE.part2.rar.htm
http://netload.in/datei7zXJLpNsHe/Dark.Power.VODRip.UNiQUE.part3.rar.htm
http://netload.in/dateiucQBYvmZcn/Dark.Power.VODRip.UNiQUE.part4.rar.htm

http://lumfile.com/mh4cd034ddu6/Dark.Power.VODRip.UNiQUE.part1.rar.html
http://lumfile.com/i2dveukbo45d/Dark.Power.VODRip.UNiQUE.part2.rar.html
http://lumfile.com/inkv82swrmko/Dark.Power.VODRip.UNiQUE.part3.rar.html
http://lumfile.com/a7ynhkm4404f/Dark.Power.VODRip.UNiQUE.part4.rar.html
 
Poslednja izmena od urednika:
Top