Šta je novo?

Dark House (2014)

  • Začetnik teme CyberWarez
  • Datum pokretanja
CyberWarez

CyberWarez

Član
Učlanjen(a)
09.05.2011
Poruka
7.549
************************************************************
Dark House (2014) 720p BluRay DTS x264-AXED
File Size: 4.48 GiB

************************************************************




INFO:

General
Complete name : Dark.House.2014.720p.BluRay.DTS-5.1.x264-AXED.mkv
Format : Matroska
Format version : Version 2
File size : 4.48 GiB
Duration : 1h 42mn
Overall bit rate : 6 253 Kbps
Encoded date : UTC 2014-03-09 15:30:23
Writing application : mkvmerge v4.0.0 ('The Stars were mine') built on Jun 6 2010 16:18:42
Writing library : libebml v1.0.0 + libmatroska v1.0.0

Video
ID : 1
Format : AVC
Format/Info : Advanced Video Codec
Format profile : [email protected]
Format settings, CABAC : Yes
Format settings, ReFrames : 9 frames
Codec ID : V_MPEG4/ISO/AVC
Duration : 1h 42mn
Bit rate : 4 619 Kbps
Width : 1 280 pixels
Height : 528 pixels
Display aspect ratio : 2.40:1
Frame rate mode : Constant
Frame rate : 23.976 fps
Color space : YUV
Chroma subsampling : 4:2:0
Bit depth : 8 bits
Scan type : Progressive
Bits/(Pixel*Frame) : 0.285
Stream size : 3.31 GiB (74%)
Writing library : x264 core 68 r1195bm 5d75a9b
Default : Yes
Forced : No

Audio
ID : 2
Format : DTS
Format/Info : Digital Theater Systems
Mode : 16
Format settings, Endianness : Big
Codec ID : A_DTS
Duration : 1h 42mn
Bit rate mode : Constant
Bit rate : 1 509 Kbps
Channel(s) : 6 channels
Channel positions : Front: L C R, Side: L R, LFE
Sampling rate : 48.0 KHz
Bit depth : 24 bits
Compression mode : Lossy
Stream size : 1.08 GiB (24%)
Default : Yes
Forced : No

PLOT: When Nick Di Santo learns that his father is not only alive but can possibly reveal the origin of his son's dark gift, he sets out on a trip that takes him to an abandoned mansion he thought only existed in his childhood imagination.
iMDB:
Kod:
http://www.imdb.com/title/tt1385543/



Single Extraction | No Password | Interchangeable Links: | Working 100% |

Kod:
http://uploaded.net/file/0f8s6w0c/Dark.H0use.720p.AXED.part1.rar
http://uploaded.net/file/t76ksapo/Dark.H0use.720p.AXED.part2.rar
http://uploaded.net/file/gbu9jqpb/Dark.H0use.720p.AXED.part3.rar
http://uploaded.net/file/r4iq8pam/Dark.H0use.720p.AXED.part4.rar
http://uploaded.net/file/7qphwtkh/Dark.H0use.720p.AXED.part5.rar

http://rapidgator.net/file/0091654347a443667f2f0d5c4caaaf8e/Dark.H0use.720p.AXED.part5.rar.html
http://rapidgator.net/file/13e1af50aeb4207bb1c12e95742c832f/Dark.H0use.720p.AXED.part4.rar.html
http://rapidgator.net/file/602a0adc6918e407874783726cecd797/Dark.H0use.720p.AXED.part2.rar.html
http://rapidgator.net/file/58a20ba13082c52ef848b030dbc506c9/Dark.H0use.720p.AXED.part1.rar.html
http://rapidgator.net/file/f78bfbfdf3af41d8b63e91c3b90049a3/Dark.H0use.720p.AXED.part3.rar.html

http://k2s.cc/file/39f318bb461d3/Dark.H0use.720p.AXED.part1.rar
http://k2s.cc/file/2faccf3e90d3a/Dark.H0use.720p.AXED.part2.rar
http://k2s.cc/file/013a0b78c47dc/Dark.H0use.720p.AXED.part3.rar
http://k2s.cc/file/4626b9b476063/Dark.H0use.720p.AXED.part4.rar
http://k2s.cc/file/c801d60fb8f03/Dark.H0use.720p.AXED.part5.rar
DOWNLOAD SINGL LINKS:
Kod:
http://uploaded.net/file/or4g1qhl/Dark.House.2014.720p.BluRay.DTS-5.1.x264-AXED.mkv
I HAVE BACKUP, DONT WORRY ABOUT DEAD LINKS, PLEASE SEND ME PM, AND I WILL REUP ANY LINK
 
Top