Šta je novo?

Curious George 2 : Follow That Monkey! aka Радознали Џорџ 2

  • Začetnik teme simark
  • Datum pokretanja
S

simark

Učlanjen(a)
05.09.2009
Poruka
188
Радознали Џорџ 2 пратите оног мајмуна
на српском и енглеском језику синхро.
Curious George 2 : Follow That Monkey!

Верзија на српском језику. Одличан звук и снимак (више резолуције). Остављен је и енглески звук
а фајл је мање величине. Уживајте...



Complete name : Радознали Џорџ 2 - Curious.George.2.Follow.That.Monkey.2009.720p.WEBRip.x264.Dual-simark.mkv

File size : 765 MiB
Duration : 1 h 19 min

Video
Codec ID : V_MPEG4/ISO/AVC
Bit rate : 1 101 kb/s
Width : 1 280 pixels
Height : 720 pixels
Display aspect ratio : 16:9
Frame rate : 23.976 (24000/1001) FPS
Stream size : 624 MiB (81%)

Audio #1
Codec ID : A_AAC-2
Bit rate : 128 kb/s
Channel(s) : 2 channels
Sampling rate : 44.1 kHz
Stream size : 69.0 MiB (9%)
Language : Serbian

Audio #2
Codec ID : A_AAC-2
Bit rate : 125 kb/s
Channel(s) : 2 channels
Sampling rate : 48.0 kHz
Stream size : 71.0 MiB (9%)
Language : English



Hidden content
You need to react to this post in order to see this content.
Нема шифре...
 
Poslednja izmena:
Top