Šta je novo?

Crna macka, beli macor aka Black Cat, White Cat (1998)

MODERATOR
Učlanjen(a)
10.10.2009
Poruka
13.331
Crna macka, beli macor (1998) 1080p WEBrip E-AC3 x264 by Wolf
(MKV)

g3bPgTD.jpg


Kod:
 https://www.imdb.com/title/tt0118843/

General
Unique ID : 80665453036498848352282333173993526371 (0x3CAF99E4D6C69A88F962C34F4DB15463)
Complete name : Crna macka, beli macor (1998) 1080p WEBrip E-AC3 x264 by Wolf.mkv
Format : Matroska
Format version : Version 4 / Version 2
File size : 1.52 GiB
Duration : 2 h 3 min
Overall bit rate : 1 758 kb/s
Movie name : Чёрная кошка, белый кот | Black Cat, White Cat (1998) - Release by whip93
Encoded date : UTC 2018-10-11 11:40:50 / UTC 2018-10-10T13:53:36Z
Writing application : mkvmerge v27.0.0 ('Metropolis') 64-bit
Writing library : libebml v1.3.6 + libmatroska v1.4.9 / Lavf57.7.2

Video
ID : 1
Format : AVC
Format/Info : Advanced Video Codec
Format profile : High 10@L4.1
Format settings : CABAC / 4 Ref Frames
Format settings, CABAC : Yes
Format settings, ReFrames : 4 frames
Codec ID : V_MPEG4/ISO/AVC
Duration : 2 h 3 min
Bit rate : 1 500 kb/s
Width : 1 916 pixels
Height : 1 040 pixels
Display aspect ratio : 1.85:1
Original display aspect rat : 1.85:1
Frame rate mode : Constant
Frame rate : 25.000 FPS
Color space : YUV
Chroma subsampling : 4:2:0
Bit depth : 10 bits
Scan type : Progressive
Bits/(Pixel*Frame) : 0.030
Stream size : 1.27 GiB (83%)
Title : Crna macka, beli macor (1998)
Writing library : x264 core 155 r2901 7d0ff22
Encoding settings : cabac=1 / ref=4 / deblock=1:-1:-1 / analyse=0x3:0x113 / me=hex / subme=8 / psy=1 / psy_rd=1.00:0.15 / mixed_ref=1 / me_range=16 / chroma_me=1 / trellis=2 / 8x8dct=1 / cqm=0 / deadzone=21,11 / fast_pskip=1 / chroma_qp_offset=-3 / threads=6 / lookahead_threads=1 / sliced_threads=0 / nr=0 / decimate=1 / interlaced=0 / bluray_compat=0 / constrained_intra=0 / bframes=3 / b_pyramid=2 / b_adapt=1 / b_bias=0 / direct=3 / weightb=1 / open_gop=0 / weightp=2 / keyint=250 / keyint_min=25 / scenecut=40 / intra_refresh=0 / rc_lookahead=50 / rc=2pass / mbtree=1 / bitrate=1500 / ratetol=1.0 / qcomp=0.60 / qpmin=0 / qpmax=81 / qpstep=4 / cplxblur=20.0 / qblur=0.5 / vbv_maxrate=150000 / vbv_bufsize=187500 / nal_hrd=none / filler=0 / ip_ratio=1.40 / aq=1:1.00
Language : Serbian
Default : Yes
Forced : No
Color range : Limited
Color primaries : BT.709
Transfer characteristics : BT.709
Matrix coefficients : BT.709
Statistics Tags Issue : mkvmerge v27.0.0 ('Metropolis') 64-bit 2018-10-11 11:40:50 / mkvmerge v27.0.0 ('Metropolis') 64-bit 2018-10-11 11:40:50 / UTC 2018-10-10T13:53:36Z
FromStats_BitRate : 1499717
FromStats_Duration : 02:03:37.760000000
FromStats_FrameCount : 185444
FromStats_StreamSize : 1390567736

Audio
ID : 2
Format : E-AC-3
Format/Info : Enhanced Audio Coding 3
Codec ID : A_EAC3
Duration : 2 h 3 min
Bit rate mode : Constant
Bit rate : 256 kb/s
Channel(s) : 6 channels
Channel positions : Front: L C R, Side: L R, LFE
Sampling rate : 48.0 kHz
Frame rate : 187.500 FPS (256 SPF)
Compression mode : Lossy
Delay relative to video : -5 ms
Stream size : 226 MiB (15%)
Title : Crna macka, beli macor (1998)
Language : rom
Service kind : Complete Main
Default : Yes
Forced : No
Statistics Tags Issue : mkvmerge v27.0.0 ('Metropolis') 64-bit 2018-10-11 11:40:50 / mkvmerge v27.0.0 ('Metropolis') 64-bit 2018-10-11 11:40:50 / UTC 2018-10-10T13:53:36Z
FromStats_BitRate : 256000
FromStats_Duration : 02:03:37.152000000
FromStats_FrameCount : 231786
FromStats_StreamSize : 237348864

Text
ID : 3
Format : UTF-8
Codec ID : S_TEXT/UTF8
Codec ID/Info : UTF-8 Plain Text
Title : CRNA MAČKA, BELI MAČOR
Language : Serbian
Default : Yes
Forced : No
Statistics Tags Issue : mkvmerge v27.0.0 ('Metropolis') 64-bit 2018-10-11 11:40:50 / mkvmerge v27.0.0 ('Metropolis') 64-bit 2018-10-11 11:40:50 / UTC 2018-10-10T13:53:36Z
FromStats_BitRate : 30
FromStats_Duration : 02:00:23.040000000
FromStats_FrameCount : 933
FromStats_StreamSize : 27801

k2aTdzy.png

Hidden content
You need to react to this post in order to see this content.
xgUnFKK.jpg

ueAs8ke.jpg
 
Top