Šta je novo?
Član
Učlanjen(a)
02.03.2013
Poruka
3.108
Creed 2015 DVDSCR XViD AC3-ETRG

n_N4zo.jpg


File: 2154654485dcscr256585.avi
Size: 1496761762 bytes (1.39 GiB), duration: 02:13:06, avg.bitrate: 1499 kb/s
Audio: ac3, 48000 Hz, stereo, 160 kb/s
Video: mpeg4, yuv420p, 720x288, 23.98 fps(r)

2154654485dcscr256585_s.jpg



Kod:
https://www.secureupload.eu/ag9lwwh65jva/2154654485dcscr256585.avi

http://keep2s.cc/file/53cead24c5fd2/2154654485dcscr256585.avi

http://rapidgator.net/file/8a3a2b17479b6bb6eb369c7ac9d85755/2154654485dcscr256585.avi.html

 
Član
Učlanjen(a)
09.05.2011
Poruka
7.549
Creed (2015) DVDSCR XViD AC3 ETRG
File Size: 1.39 GiB

2HRz2jMZkg1MCSWHFt9WJc3QoND62fc5.jpg


RELEAsEN0TEs
Kod:
General
Format                         : AVI
Format/Info                    : Audio Video Interleave
File size                      : 1.39 GiB
Duration                       : 2h 13mn
Overall bit rate               : 1 499 Kbps
Writing library                : VirtualDub build 35491/release

Video
ID                             : 0
Format                         : MPEG-4 Visual
Codec ID                       : XVID
Codec ID/Hint                  : XviD
Duration                       : 2h 13mn
Bit rate                       : 1 271 Kbps
Width                          : 720 pixels
Height                         : 288 pixels
Display aspect ratio           : 2.500
Frame rate                     : 23.976 fps
Color space                    : YUV
Chroma subsampling             : 4:2:0
Compression mode               : Lossy
Bits/(Pixel*Frame)             : 0.256
Stream size                    : 1.18 GiB (85%)

Audio
ID                             : 1
Format                         : AC-3
Format/Info                    : Audio Coding 3
Codec ID                       : 2000
Duration                       : 2h 13mn
Bit rate mode                  : Constant
Bit rate                       : 160 Kbps
Channel count                  : 2 channels
Sampling rate                  : 48.0 KHz
Compression mode               : Lossy
Stream size                    : 152 MiB (11%)
Alignment                      : Aligned on interleaves

[b]Title:[/b] Creed (2015)
[b]Genres:[/b] Drama, Sport
[b]Description:[/b] The former World Heavyweight Champion Rocky Balboa serves as a trainer and mentor to Adonis Johnson, the son of his late friend and former rival Apollo Creed.
[b]Director:[/b] Ryan Coogler
[b]Writer:[/b] Ryan Coogler (screenplay), Aaron Covington (screenplay), Ryan Coogler (story), Sylvester Stallone (characters)
[b]Actors:[/b] Michael B. Jordan, Sylvester Stallone, Tessa Thompson, Phylicia Rashad
[b]Rating:[/b] 8.7
[b]Votes:[/b] 12419
[b]Rated:[/b] PG-13
[b]Runtime:[/b] 133 min

Kod:
http://www.imdb.com/title/tt3076658/

sCREENsH0Ts

cre1.png


cre2.png


cre3.png


D0WNL0AD
Kod:
http://alfafile.net/file/zvVb/cSCR.XViD.AC3-ETRG.rar
http://k2s.cc/file/5aacb3b5c4afb/cSCR.XViD.AC3-ETRG.rar
http://nitroflare.com/view/BF6895282FAE6AD/cSCR.XViD.AC3-ETRG.rar
http://rapidgator.net/file/dd69eb67d05bb6ddc1825d0a3eed8804/cSCR.XViD.AC3-ETRG.rar.html
http://uploaded.net/file/dusaxeoh/cSCR.XViD.AC3-ETRG.rar
 
Član
Učlanjen(a)
09.05.2011
Poruka
7.549
Creed (2015) BDRip x264 SPARKS
File Size: 730 MiB

xSE4NBFDzqedwa4AIj99r1Z7ljFec8ff.jpg


RELEAsEN0TEs
Kod:
General
Complete name                  : Creed.2015.BDRip.x264-SPARKS.mkv
Format                         : Matroska
Format version                 : Version 4 / Version 2
File size                      : 759 MiB
Duration                       : 2h 13mn
Overall bit rate               : 796 Kbps
Encoded date                   : UTC 2016-02-11 21:28:43
Writing application            : mkvmerge v8.3.0 ('Over the Horizon') 64bit
Writing library                : libebml v1.3.1 + libmatroska v1.4.2

Video
ID                             : 1
Format                         : AVC
Format/Info                    : Advanced Video Codec
Format profile                 : High@L3.1
Format settings, CABAC         : Yes
Format settings, ReFrames      : 5 frames
Codec ID                       : V_MPEG4/ISO/AVC
Duration                       : 2h 13mn
Width                          : 720 pixels
Height                         : 300 pixels
Display aspect ratio           : 2.40:1
Frame rate mode                : Constant
Frame rate                     : 23.976 fps
Color space                    : YUV
Chroma subsampling             : 4:2:0
Bit depth                      : 8 bits
Scan type                      : Progressive
Title                          : X264
Writing library                : x264 core 148 r2665 a01e339
Language                       : English
Default                        : Yes
Forced                         : No

Audio
ID                             : 2
Format                         : AAC
Format/Info                    : Advanced Audio Codec
Format profile                 : LC
Codec ID                       : A_AAC
Duration                       : 2h 13mn
Channel count                  : 2 channels
Channel positions              : Front: L R
Sampling rate                  : 48.0 KHz
Compression mode               : Lossy
Language                       : English
Default                        : Yes
Forced                         : No

Kod:
http://www.imdb.com/title/tt3076658/

sCREENsH0Ts

p00007.png


p00008.png


p00009.png


D0WNL0AD
Kod:
http://nitroflare.com/view/7F95108202AD757/Creed.2015.BDRip.x264-SPARKS.rar
http://rapidgator.net/file/26ba601a82650b52a9228152b773fb4f/Creed.2015.BDRip.x264-SPARKS.rar.html
http://uploaded.net/file/1c0lfnpd/Creed.2015.BDRip.x264-SPARKS.rar
 
Top