Šta je novo?
MODERATOR
Učlanjen(a)
10.10.2009
Poruka
13.307
Comic Sans (2018) 720p WEBrip DD5.1 x264 by Wolf
(MKV)

4HpD3MD.jpg


Kod:
 https://www.imdb.com/title/tt7640198/

General
Unique ID : 275104536151048331435328983828047096966 (0xCEF734D6B244B488CD87F859BF646C86)
Complete name : Comic Sans (2018) 720p WEBrip DD5.1 x264 by Wolf.mkv
Format : Matroska
Format version : Version 4
File size : 1.28 GiB
Duration : 1 h 38 min
Overall bit rate : 1 857 kb/s
Encoded date : UTC 2019-08-15 17:58:27
Writing application : mkvmerge v36.0.0 ('Is That Jazz?') 64-bit
Writing library : libebml v1.3.9 + libmatroska v1.5.2

Video
ID : 1
Format : AVC
Format/Info : Advanced Video Codec
Format profile : [email protected]
Format settings : CABAC / 8 Ref Frames
Format settings, CABAC : Yes
Format settings, Reference : 8 frames
Codec ID : V_MPEG4/ISO/AVC
Duration : 1 h 38 min
Bit rate : 1 600 kb/s
Width : 1 280 pixels
Height : 538 pixels
Display aspect ratio : 2.40:1
Frame rate mode : Constant
Frame rate : 25.000 FPS
Color space : YUV
Chroma subsampling : 4:2:0
Bit depth : 8 bits
Scan type : Progressive
Bits/(Pixel*Frame) : 0.093
Stream size : 1.10 GiB (86%)
Title : Comic Sans (2018)
Writing library : x264 core 157 r2935 545de2f
Encoding settings : cabac=1 / ref=8 / deblock=1:-1:-1 / analyse=0x3:0x133 / me=umh / subme=9 / psy=1 / psy_rd=1.00:0.15 / mixed_ref=1 / me_range=16 / chroma_me=1 / trellis=2 / 8x8dct=1 / cqm=0 / deadzone=21,11 / fast_pskip=1 / chroma_qp_offset=-3 / threads=6 / lookahead_threads=1 / sliced_threads=0 / nr=0 / decimate=1 / interlaced=0 / bluray_compat=0 / constrained_intra=0 / bframes=3 / b_pyramid=2 / b_adapt=2 / b_bias=0 / direct=3 / weightb=1 / open_gop=0 / weightp=2 / keyint=250 / keyint_min=25 / scenecut=40 / intra_refresh=0 / rc_lookahead=60 / rc=2pass / mbtree=1 / bitrate=1600 / ratetol=1.0 / qcomp=0.60 / qpmin=0 / qpmax=69 / qpstep=4 / cplxblur=20.0 / qblur=0.5 / vbv_maxrate=300000 / vbv_bufsize=300000 / nal_hrd=none / filler=0 / ip_ratio=1.40 / aq=1:1.00
Language : Croatian
Default : Yes
Forced : No
Color range : Limited
Color primaries : BT.709
Transfer characteristics : BT.709
Matrix coefficients : BT.709

Audio
ID : 2
Format : E-AC-3
Format/Info : Enhanced AC-3
Commercial name : Dolby Digital Plus
Codec ID : A_EAC3
Duration : 1 h 38 min
Bit rate mode : Constant
Bit rate : 256 kb/s
Channel(s) : 6 channels
Channel layout : L R C LFE Ls Rs
Sampling rate : 48.0 kHz
Frame rate : 31.250 FPS (1536 SPF)
Compression mode : Lossy
Stream size : 181 MiB (14%)
Title : Comic Sans (2018)
Language : Croatian
Service kind : Complete Main
Default : Yes
Forced : No

epYscVA.png

Hidden content
You need to react to this post in order to see this content.
zbNKcak.jpg

Hidden content
You need to react to this post in order to see this content.
ldGwFQB.png

mBsRQ8s.jpg
 
UREDNIK
Učlanjen(a)
27.06.2011
Poruka
10.328
Comic Sans (2018)


screen.png





v3JRvsy.png




info.png



r28k0nfzh4.png





Opis filma:

Kad razmaženom zagrebačkom dizajneru Alanu, ljubavni život izmakne kontroli i sa sobom povuče superuspešnu karijeru i kad se čini da je dotakao samo dno života i da od toga ne može biti gore, u njegov se život nakon dugogodišnjeg odsustva vraća šarmantni otac Bruno, prava umetnička duša i veseljak, otelotvorenje nonšalantnosti i hedonizma. Iznenadna smrt tetke sa ostrva Vis povezaće oca i sina u avanturi života koja će rezultovati nizom tragikomičnih ljubavnih susreta, brodolomom na ostrvu Jabuka i razotkrivanjem tajne jednog pomalo zaboravljenog događaja iz devedesetih.

Žanr: Comedy, Drama, Romance

Režija: Nevio Marasovic

Glavne uloge: Janko Popovic Volaric, Zlatko Buric, Natasa Janjic








screen.png



Comic-Sans-2018-720p-WEBRip-x264-mkv.jpg





Download.png



Hidden content
You need to react to this post in order to see this content.

 
Poslednja izmena:
Top