Šta je novo?

Cinderella 1,2 aka Пепељуга 1,2 (1950 - 2002)

  • Začetnik teme simark
  • Datum pokretanja
S

simark

Učlanjen(a)
05.09.2009
Poruka
189
Пепељуга 1 -на српском (и енг.) језику
Cinderella 1 (new serbian, english, 1950)


Дизнијев класик у новом руху. Одличан српски звук са прелепим песмама,
виша резолуција прилагођена за широке екране, направљено од 1080p.
Остављен и енглески звук. Убрзо стиже и други део, уживајте...


Complete name : Пепељуга - Cinderella.1950.1080p.BluRay.x264.to Crop 770p.Dual-simark.mkv

File size : 889 MiB
Duration : 1 h 14 min

Video
Codec ID : V_MPEG4/ISO/AVC
Bit rate : 1 426 kb/s
Width : 1 232 pixels
Height : 772 pixels
Display aspect ratio : 16:10
Frame rate : 23.976 (24000/1001) FPS
Stream size : 769 MiB (86%)
Writing library : x264 core 142

Audio #1
Codec ID : A_AAC-2
Bit rate : 128 kb/s
Channel(s) : 2 channels
Sampling rate : 48.0 kHz
Stream size : 68.0 MiB (8%)
Language : Serbian

Audio #2
Codec ID : A_AAC-2
Bit rate : 96.0 kb/s
Channel(s) : 2 channels
Sampling rate : 48.0 kHz
Stream size : 50.8 MiB (6%)
Language : English


Hidden content
You need to react to this post in order to see this content.
Нема шифре, ускоро и други део...
 
Poslednja izmena:
S

simark

Učlanjen(a)
05.09.2009
Poruka
189
Пепељуга 2 -снови се остварују (на српском)
Cinderella 2 -dreams come true (ser,eng,2002)



Ево и другог дела, направљен 50-ак година касније, почетком овог века. На српском језику,
солидан стари звук, са вишом резолуцијом и widescreen снимком за нове екране.
Остављен је и енглески звук. Уживајте...


Complete name : Пепељуга 2-снови се остварују - Cinderella.II.Dreams.Come.True.2002.720p.BluRay.H264.AAC.Dual-simark.mkv

File size : 907 MiB
Duration : 1 h 13 min

Video
Codec ID : V_MPEG4/ISO/AVC
Bit rate : 1 500 kb/s
Width : 1 280 pixels
Height : 756 pixels
Display aspect ratio :16:9
Frame rate : 23.976 (23976/1000) FPS
Stream size : 788 MiB (87%)
Writing library : x264 core 148 r2597M e86f3a1

Audio #1
Codec ID : A_AAC-2
Bit rate : 112 kb/s
Channel(s) : 2 channels
Sampling rate : 48.0 kHz
Stream size : 58.8 MiB (6%)
Language : Serbian

Audio #2
Codec ID : A_AAC-2
Bit rate : 112 kb/s
Channel(s) : 2 channels
Sampling rate : 48.0 kHz
Stream size : 58.7 MiB (6%)
Language : English


Hidden content
You need to react to this post in order to see this content.
Нема шифре...
 
J

jecablok64

Učlanjen(a)
11.04.2020
Poruka
1
Пепељуга 1 -на српском (и енг.) језику
Cinderella 1 (new serbian, english, 1950)


Дизнијев класик у новом руху. Одличан српски звук са прелепим песмама,
виша резолуција прилагођена за широке екране, направљено од 1080p.
Остављен и енглески звук. Убрзо стиже и други део, уживајте...


Complete name : Пепељуга - Cinderella.1950.1080p.BluRay.x264.to Crop 770p.Dual-simark.mkv

File size : 889 MiB
Duration : 1 h 14 min

Video
Codec ID : V_MPEG4/ISO/AVC
Bit rate : 1 426 kb/s
Width : 1 232 pixels
Height : 772 pixels
Display aspect ratio : 16:10
Frame rate : 23.976 (24000/1001) FPS
Stream size : 769 MiB (86%)
Writing library : x264 core 142

Audio #1
Codec ID : A_AAC-2
Bit rate : 128 kb/s
Channel(s) : 2 channels
Sampling rate : 48.0 kHz
Stream size : 68.0 MiB (8%)
Language : Serbian

Audio #2
Codec ID : A_AAC-2
Bit rate : 96.0 kb/s
Channel(s) : 2 channels
Sampling rate : 48.0 kHz
Stream size : 50.8 MiB (6%)
Language : English


[Hidden content]

Нема шифре, ускоро и други део...
Može li da se obnovi link?
 
Top