Šta je novo?
SerbianForum

Dobrodošli na SerbianForum.org, mjesto na kojem možete pronaći apsolutno sve, mjesto druženja i odlične zabave!

Chicken Little aka Досије Пиленце (2005)

  • Začetnik teme simark
  • Datum pokretanja
S

simark

Досије Пиленце
на српском и енгл.
Chicken Little 2005

Стари цртани за све узрасте на српском језику, солидан звук.
Остављен је и енглески звук, у вишој је резолуцији, уживајте...




Complete name : Досије пиленце - Chicken Little 2005 720p BRRip Dual-simark.mkv

File size : 889 MiB
Duration : 1 h 20 min


Video
Codec ID : V_MPEG4/ISO/AVC
Bit rate : 1 200 kb/s
Width : 1 280 pixels
Height : 720 pixels
Display aspect ratio : 16:9
Frame rate : 23.976 FPS
Stream size : 694 MiB (78%)
Writing library : x264 core 112

Audio #1
Codec ID : A_AAC-2
Bit rate : 221 kb/s
Channel(s) : 2 channels
Sampling rate : 48.0 kHz
Stream size : 128 MiB (14%)
Language : Serbian

Audio #2
Codec ID : A_AAC-2
Bit rate : 112 kb/s
Channel(s) : 2 channels
Sampling rate : 48.0 kHz
Stream size : 64.8 MiB (7%)
Language : English


Hidden content
You need to react to this post in order to see this content.
Нема шифре...
 
Top