Šta je novo?
SerbianForum

This is a sample guest message. Register a free account today to become a member! Once signed in, you'll be able to participate on this site by adding your own topics and posts, as well as connect with other members through your own private inbox!

  • Hvala svima na 1 900 000+ postova & 500 000+ tema!

Chicken Little aka Досије Пиленце (2005)

  • Začetnik teme simark
  • Datum pokretanja
S

simark

#1
Досије Пиленце
на српском и енгл.
Chicken Little 2005
IYKZQ3c.jpg

Стари цртани за све узрасте на српском језику, солидан звук.
Остављен је и енглески звук, у вишој је резолуцији, уживајте...



info-png.108798

Complete name : Досије пиленце - Chicken Little 2005 720p BRRip Dual-simark.mkv

File size : 889 MiB
Duration : 1 h 20 min


Video
Codec ID : V_MPEG4/ISO/AVC
Bit rate : 1 200 kb/s
Width : 1 280 pixels
Height : 720 pixels
Display aspect ratio : 16:9
Frame rate : 23.976 FPS
Stream size : 694 MiB (78%)
Writing library : x264 core 112

Audio #1
Codec ID : A_AAC-2
Bit rate : 221 kb/s
Channel(s) : 2 channels
Sampling rate : 48.0 kHz
Stream size : 128 MiB (14%)
Language : Serbian

Audio #2
Codec ID : A_AAC-2
Bit rate : 112 kb/s
Channel(s) : 2 channels
Sampling rate : 48.0 kHz
Stream size : 64.8 MiB (7%)
Language : English

download-png.108799

You need to like this in order to view this content.
Нема шифре...
 

Top